<?xml version="1.0" standalone="no"?>
<!DOCTYPE svg PUBLIC "-//W3C//DTD SVG 1.1//EN" "http://www.w3.org/Graphics/SVG/1.1/DTD/svg11.dtd">
<svg xmlns="http://www.w3.org/2000/svg">
<defs >
<font id="ReadexPro" horiz-adv-x="596" ><font-face
    font-family="Readex Pro SemiBold"
    units-per-em="1000"
    panose-1="0 0 0 0 0 0 0 0 0 0"
    ascent="1000"
    descent="-250"
    alphabetic="0" />
<glyph unicode=" " horiz-adv-x="306" />
<glyph unicode="!" horiz-adv-x="283" d="M98 250Q89 313 82 379T71 511T66 635V707H216V635Q216 574 212 508T200 375T184 250H98ZM140 -11Q101 -11 80 11T58 74Q58 111 80 135T139 160Q178 160 199 138T220 74Q220 36 198 13T140 -11Z" />
<glyph unicode="&quot;" horiz-adv-x="456" d="M263 438L284 700H432L350 438H263ZM40 438L61 700H211L128 438H40Z" />
<glyph unicode="#" horiz-adv-x="714" d="M367 0L487 700H612L492 0H367ZM42 157V271H636V157H42ZM104 0L224 700H348L228 0H104ZM80 438V552H673V438H80Z" />
<glyph unicode="$" horiz-adv-x="631" d="M318 -10Q224 -10 155 22T35 115L115 231Q168 168 218 143T327 118Q358 118 382 127T421 152T436 189Q436 205 429 218T409 242T378 261T338 275T290 287Q215 302 165 331T91 404T67 506Q67 568 102 614T195 687T323 714Q407
714 472 686T583 601L508 497Q472 541 425 563T325 585Q293 585 269 577T231 552T218 513Q218 495 227 481T252 457T293 438T346 425Q401 414 445 396T520 351T569 291T586 215Q586 144 552 94T458 17T318 -10ZM257 -91L265 370L352 337L360 -91H257ZM384 336L295
370L288 786H391L384 336Z" />
<glyph unicode="%" horiz-adv-x="922" d="M155 0L618 700H752L284 0H155ZM208 329Q159 329 121 354T62 422T40 522Q40 578 61 622T121 691T209 716Q258 716 295 691T354 622T376 522Q376 468 354 424T294 355T208 329ZM209 423Q226 423 238 435T258 470T265 522Q265
552 258 574T239 609T208 621Q191 621 178 609T157 574T150 522Q150 477 165 450T209 423ZM709 -9Q661 -9 623 16T562 85T540 184Q540 240 561 283T621 352T709 378Q758 378 795 353T854 284T876 183Q876 129 854 86T795 17T709 -9ZM710 84Q727 84 739 96T759 131T766
183Q766 228 751 255T709 283Q691 283 678 271T658 236T650 183Q650 139 666 112T710 84Z" />
<glyph unicode="&amp;" horiz-adv-x="765" d="M579 0L501 82L456 124L301 293Q267 329 242 362T201 424T176 480T167 530Q167 583 195 624T272 690T385 714Q433 714 475 698T549 651T593 581L483 514Q465 557 443 574T389 591Q365 591 348 584T322 562T313 524Q313
504 327 477T365 421T411 367T451 324L546 218L602 166L756 0H579ZM319 -10Q244 -10 183 20T86 102T50 215Q50 291 93 349T220 439L308 347Q249 334 220 305T191 228Q191 192 208 165T258 123T337 108Q378 108 413 124T477 172T523 245T548 340H679Q670 277 649
224T594 127T520 53T427 6T319 -10Z" />
<glyph unicode="&apos;" horiz-adv-x="236" d="M41 438L62 700H212L128 438H41Z" />
<glyph unicode="(" horiz-adv-x="382" d="M289 -186Q167 -110 103 4T39 258Q39 397 103 511T290 702L369 624Q274 558 226 463T178 258Q178 149 226 54T369 -108L289 -186Z" />
<glyph unicode=")" horiz-adv-x="381" d="M91 -186L13 -108Q108 -42 156 53T204 258Q204 367 156 462T13 624L92 702Q214 626 278 512T342 258Q342 119 278 5T91 -186Z" />
<glyph unicode="*" horiz-adv-x="421" d="M163 361L175 488L188 487L70 408L23 491L149 545L148 538L21 596L70 678L189 593H175L162 723H263L250 586L237 592L351 677L400 593L271 535V545L399 491L350 409L237 490L251 488L265 361H163Z" />
<glyph unicode="+" horiz-adv-x="595" d="M231 41V526H363L362 41H231ZM46 224V340H548V224H46Z" />
<glyph unicode="," horiz-adv-x="281" d="M86 -194L42 -140Q81 -121 104 -94T128 -47Q128 -37 123 -28T102 -3Q80 15 72 30T64 64Q64 93 85 109T139 126Q167 126 189 111T225 68T238 4Q238 -28 227 -58T195 -116T147 -163T86 -194Z" />
<glyph unicode="-" horiz-adv-x="429" d="M52 221V353H378V221H52Z" />
<glyph unicode="." horiz-adv-x="247" d="M123 -11Q85 -11 64 11T43 74Q43 112 65 136T123 160Q162 160 183 138T204 74Q204 36 182 13T123 -11Z" />
<glyph unicode="/" horiz-adv-x="581" d="M10 -139L425 700H564L151 -139H10Z" />
<glyph unicode="0" horiz-adv-x="650" d="M325 -10Q236 -10 173 33T76 157T42 350Q42 462 75 542T172 666T325 710Q414 710 477 667T574 543T608 350Q608 238 575 158T478 34T325 -10ZM325 119Q392 119 428 179T465 350Q465 463 429 524T325 585Q258 585 222 524T185
350Q185 240 221 180T325 119Z" />
<glyph unicode="1" horiz-adv-x="542" d="M214 50V616L251 550L106 479L76 611L272 710H362V50H214ZM92 0V135H487V0H92Z" />
<glyph unicode="2" horiz-adv-x="548" d="M72 0L38 83L243 312Q261 330 280 354T318 403T347 453T358 497Q358 521 349 538T320 565T273 575Q248 575 225 562T182 522T147 458L35 522Q55 580 92 623T180 691T289 714Q350 714 398 689T475 618T503 514Q503 486
496 457T471 395T427 325T362 246L205 75L185 135H531V0H72Z" />
<glyph unicode="3" horiz-adv-x="569" d="M274 -10Q193 -10 133 25T21 145L132 214Q154 179 178 158T227 126T281 116Q311 116 336 130T377 169T393 228Q393 261 380 284T343 319T284 331Q269 331 252 328T214 318T173 303L138 396L322 598L360 571L67 574V704H487L515
649L285 400L251 440Q259 443 277 446T310 450Q355 450 395 434T466 387T514 317T532 231Q532 162 498 108T405 22T274 -10Z" />
<glyph unicode="4" horiz-adv-x="647" d="M349 0V563L416 559L174 264L158 288H610V161H84L23 279L373 704H493V0H349Z" />
<glyph unicode="5" horiz-adv-x="586" d="M274 -7Q198 -7 137 24T34 116L116 206Q159 158 193 141T270 124Q305 124 332 138T376 179T392 236Q392 269 376 295T334 337T273 352Q252 352 234 349T192 337T135 309L67 400L110 704H504V574H187L223 618L190 398L143
421Q158 435 184 446T241 465T302 473Q368 473 419 443T501 360T531 238Q531 169 497 114T405 26T274 -7Z" />
<glyph unicode="6" horiz-adv-x="570" d="M290 0Q236 0 190 19T109 72T55 152T35 251Q36 295 49 342T88 440T150 551L245 711H384L389 701L262 498Q235 453 215 413T179 335T150 259L121 342Q138 387 171 420T244 471T325 490Q384 490 433 459T511 375T541 261Q541
186 509 127T420 34T290 0ZM291 127Q325 127 351 142T393 186T408 250Q408 281 393 308T351 353T292 370Q257 370 230 354T188 311T172 251Q172 216 187 188T229 144T291 127Z" />
<glyph unicode="7" horiz-adv-x="551" d="M94 0L378 635L413 571H52V704H501L516 626L247 0H94Z" />
<glyph unicode="8" horiz-adv-x="592" d="M295 -3Q226 -3 169 24T78 98T44 203Q44 240 53 269T82 323T129 365T193 396L183 362Q147 376 121 399T80 451T65 516Q65 571 96 614T179 682T295 707Q359 707 411 682T494 614T525 516Q525 481 512 452T472 401T406 362L399
392Q443 379 476 353T528 288T547 203Q547 145 513 98T422 24T295 -3ZM295 120Q326 120 350 132T389 164T403 212Q403 240 389 261T351 295T295 308Q265 308 241 296T203 262T188 212Q188 186 202 166T241 133T295 120ZM295 431Q322 431 343 441T377 469T389 510Q389
534 377 552T344 580T295 591Q268 591 247 581T214 552T202 510Q202 487 214 469T247 441T295 431Z" />
<glyph unicode="9" horiz-adv-x="568" d="M214 0L210 10L426 453L446 384Q429 340 396 307T321 255T240 236Q183 236 135 267T58 349T29 459Q29 532 63 589T154 681T285 715Q337 715 383 697T464 645T518 569T538 476Q538 444 533 412T515 344T484 267T442 173L355
0H214ZM275 360Q309 360 335 374T376 414T391 471Q391 505 377 531T336 573T277 589Q245 589 221 574T182 533T168 472Q168 443 182 417T221 376T275 360Z" />
<glyph unicode=":" horiz-adv-x="247" d="M123 -10Q85 -10 64 12T43 75Q43 113 65 137T123 161Q162 161 183 139T204 75Q204 37 182 14T123 -10ZM123 368Q85 368 64 390T43 453Q43 491 65 515T123 539Q162 539 183 517T204 453Q204 415 182 392T123 368Z" />
<glyph unicode=";" horiz-adv-x="282" d="M87 -194L43 -140Q82 -121 105 -94T129 -47Q129 -37 124 -28T103 -3Q81 15 73 30T65 64Q65 93 86 109T140 126Q168 126 190 111T226 68T239 4Q239 -28 228 -58T196 -116T148 -163T87 -194ZM140 369Q102 369 81 391T60
454Q60 492 82 516T140 540Q179 540 200 518T221 454Q221 416 199 393T140 369Z" />
<glyph unicode="&lt;" horiz-adv-x="526" d="M423 -8L45 209V301L423 518L482 409L136 221V290L482 102L423 -8Z" />
<glyph unicode="=" horiz-adv-x="603" d="M61 327V444H542V327H61ZM61 119V235H542V119H61Z" />
<glyph unicode="&gt;" horiz-adv-x="526" d="M108 -8L48 102L396 290V221L48 409L108 518L487 301V209L108 -8Z" />
<glyph unicode="?" horiz-adv-x="528" d="M195 231L164 365Q206 375 239 388T295 419T332 457T345 506Q345 529 334 546T305 572T261 582Q233 582 208 572T157 541T104 491L26 587Q57 623 95 651T177 696T273 713Q340 713 388 687T462 616T488 513Q488 464 464
422T396 346T292 284L279 231H195ZM159 74Q159 112 181 136T240 160Q278 160 299 138T320 74Q320 36 298 13T240 -11Q201 -11 180 11T159 74Z" />
<glyph unicode="@" horiz-adv-x="964" d="M414 -162Q326 -162 257 -136T140 -61T66 55T40 205Q40 323 81 416T197 575T368 675T577 710Q656 710 720 688T830 623T900 524T925 396Q925 327 906 266T851 156T769 79T668 51Q631 51 603 64T558 100T541 154Q541 171
543 187T547 222L569 201Q553 154 528 120T469 69T395 51Q351 51 316 74T261 140T240 237Q240 285 258 334T308 424T385 491T482 517Q513 517 537 501T576 457T594 392L566 352L594 507H725L668 194Q664 168 677 157T707 146Q735 146 759 165T802 219T830 297T841
391Q841 466 809 519T717 600T571 629Q469 629 387 601T246 518T156 386T125 208Q125 140 144 87T200 -4T292 -61T417 -81Q465 -81 498 -75T562 -55T631 -21L669 -89Q610 -119 568 -134T490 -156T414 -162ZM431 160Q460 160 486 178T532 227T557 291Q560 307 561
319T563 342Q563 364 556 380T534 404T497 412Q463 412 436 387T392 322T375 238Q375 202 390 181T431 160Z" />
<glyph unicode="A" horiz-adv-x="698" d="M8 0L283 700H417L690 0H537L395 377Q389 394 381 419T363 472T347 525T334 567L361 568Q355 546 348 522T332 471T315 421T298 375L157 0H8ZM136 147L186 269H505L556 147H136Z" />
<glyph unicode="B" horiz-adv-x="694" d="M91 0V700H395Q466 700 514 680T587 621T613 526Q613 468 583 428T497 372L496 393Q542 382 576 357T630 294T650 210Q650 158 633 119T583 53T505 13T405 0H91ZM235 130H399Q447 130 474 152T501 216Q501 242 488 260T451
287T394 296H235V130ZM235 417H377Q405 417 424 426T455 453T466 494Q466 530 442 550T369 570H235V417Z" />
<glyph unicode="C" horiz-adv-x="688" d="M397 -10Q320 -10 256 16T144 91T71 206T45 351Q45 428 72 493T148 608T262 684T405 711Q455 711 503 698T592 658T662 596L568 491Q533 529 492 549T404 569Q361 569 324 554T258 509T214 440T198 351Q198 301 213 261T258
192T327 148T417 132Q449 132 478 141T534 166T580 203L653 86Q630 59 589 37T498 3T397 -10Z" />
<glyph unicode="D" horiz-adv-x="764" d="M91 0V700H379Q455 700 518 675T626 603T695 492T719 350Q719 272 695 208T626 98T519 26T379 0H91ZM241 110L225 135H374Q419 135 454 150T515 193T554 261T567 350Q567 399 554 438T516 506T455 550T374 565H222L241 588V110Z" />
<glyph unicode="E" horiz-adv-x="635" d="M91 0V700H563V568H238V132H570V0H91ZM161 293V421H515V293H161Z" />
<glyph unicode="F" horiz-adv-x="613" d="M91 0V700H241V0H91ZM160 278V408H523V278H160ZM160 565V700H565V565H160Z" />
<glyph unicode="G" horiz-adv-x="776" d="M412 -10Q330 -10 263 17T147 93T72 208T45 351Q45 428 72 494T150 608T269 684T418 711Q474 711 525 696T618 655T687 595L594 497Q555 534 511 554T416 575Q369 575 330 559T261 512T215 440T198 351Q198 304 215 263T263
192T335 144T423 126Q456 126 485 136T537 165T573 207T586 259V283L605 255H407V381H729Q731 370 732 354T733 323T734 298Q734 230 710 174T642 76T539 13T412 -10Z" />
<glyph unicode="H" horiz-adv-x="774" d="M533 0V700H683V0H533ZM91 0V700H241V0H91ZM152 280V418H609V280H152Z" />
<glyph unicode="I" horiz-adv-x="529" d="M73 0V129H190V571H73V700H456V571H340V129H456V0H73Z" />
<glyph unicode="J" horiz-adv-x="659" d="M260 -10Q223 -10 191 -2T131 24T81 64T44 116L132 208Q154 177 172 160T209 135T249 128Q277 128 298 141T331 177T343 229V567H214V700H597V567H489V213Q489 163 472 122T424 52T352 7T260 -10Z" />
<glyph unicode="K" horiz-adv-x="739" d="M205 207L174 344L527 700H710L205 207ZM91 0V700H241V0H91ZM545 0L283 347L387 436L724 0H545Z" />
<glyph unicode="L" horiz-adv-x="606" d="M91 0V700H241V135H558V0H91Z" />
<glyph unicode="M" horiz-adv-x="873" d="M91 0V700H228L482 286L393 287L651 700H783V0H636V237Q636 328 640 401T656 545L673 498L468 181H401L201 496L217 545Q229 478 233 407T238 237V0H91Z" />
<glyph unicode="N" horiz-adv-x="803" d="M91 0V700H225L613 176H586Q579 227 574 277T568 385T566 512V700H712V0H576L181 527H217Q224 461 228 418T234 347T237 296T238 250V0H91Z" />
<glyph unicode="O" horiz-adv-x="801" d="M401 -10Q324 -10 259 17T146 92T72 207T45 352Q45 430 71 496T145 611T258 687T401 714Q478 714 542 687T655 611T729 496T756 352Q756 274 730 208T655 93T543 17T401 -10ZM401 132Q445 132 482 148T546 194T589 264T604
352Q604 399 589 439T547 509T482 555T401 572Q357 572 320 556T255 510T212 440T197 351Q197 288 223 239T295 161T401 132Z" />
<glyph unicode="P" horiz-adv-x="653" d="M91 0V700H388Q451 700 501 671T580 591T610 476Q610 411 581 359T501 276T388 245H241V0H91ZM239 381H372Q395 381 414 393T445 426T457 474Q457 501 445 521T414 553T372 565H239V381Z" />
<glyph unicode="Q" horiz-adv-x="801" d="M614 -111L347 246L460 325L724 -29L614 -111ZM401 -10Q324 -10 259 17T146 92T72 207T45 352Q45 430 71 496T145 611T258 687T401 714Q478 714 542 687T655 611T729 496T756 352Q756 274 730 208T655 93T543 17T401 -10ZM401
132Q445 132 482 148T546 194T589 264T604 352Q604 399 589 439T547 509T482 555T401 572Q357 572 320 556T255 510T212 440T197 351Q197 288 223 239T295 161T401 132Z" />
<glyph unicode="R" horiz-adv-x="701" d="M91 0V700H401Q467 700 519 671T603 592T634 476Q634 413 603 362T520 281T401 251H235V0H91ZM489 0L311 317L464 342L662 -1L489 0ZM235 374H395Q422 374 442 386T474 421T486 471Q486 500 472 522T433 557T375 570H235V374Z" />
<glyph unicode="S" horiz-adv-x="631" d="M318 -10Q220 -10 151 25T31 129L125 235Q174 167 222 143T327 118Q358 118 382 127T421 152T436 189Q436 205 429 218T409 242T378 261T338 276T290 287Q234 299 192 318T122 364T81 426T67 506Q67 568 102 614T195 687T323
714Q418 714 479 682T578 592L482 498Q451 541 411 563T325 585Q293 585 269 577T231 552T218 513Q218 495 227 481T252 457T293 438T346 425Q401 414 445 396T520 351T569 291T586 215Q586 144 552 94T458 17T318 -10Z" />
<glyph unicode="T" horiz-adv-x="629" d="M236 0V565H34V700H596V565H386V0H236Z" />
<glyph unicode="U" horiz-adv-x="756" d="M379 -6Q294 -6 228 29T123 127T85 269V701H235V278Q235 236 254 203T307 149T379 129Q420 129 453 149T506 202T526 278V701H671V269Q671 190 634 128T530 30T379 -6Z" />
<glyph unicode="V" horiz-adv-x="716" d="M291 0L11 700H171L316 323Q328 292 337 268T352 223T365 183T378 140L348 139Q357 171 365 197T383 253T408 323L546 700H704L422 0H291Z" />
<glyph unicode="W" horiz-adv-x="997" d="M226 0L11 700H166L281 309Q290 280 296 248T306 187T313 143H288Q297 186 302 215T314 266T327 309L439 599H563L672 309Q683 279 690 252T703 199T713 149L690 144Q693 166 695 181T698 209T701 235T707 267T719 310L833
700H985L770 0H659L486 414L501 411L340 0H226Z" />
<glyph unicode="X" horiz-adv-x="700" d="M507 0L291 313L12 700H197L409 391L692 0H507ZM7 0L274 382L388 301L182 0H7ZM425 324L312 402L507 700H682L425 324Z" />
<glyph unicode="Y" horiz-adv-x="680" d="M275 0V349L282 300L-1 700H171L387 391L320 394L514 700H681L410 289L425 358V0H275Z" />
<glyph unicode="Z" horiz-adv-x="675" d="M60 0V102L442 612L486 561H86V700H607V599L227 88L182 135H618V0H60Z" />
<glyph unicode="[" horiz-adv-x="416" d="M80 -190V700H364V583H208L214 591V-85L204 -73H364V-190H80Z" />
<glyph unicode="\" horiz-adv-x="575" d="M428 -107L30 700H170L570 -107H428Z" />
<glyph unicode="]" horiz-adv-x="416" d="M52 -190V-73H208L202 -81V595L212 583H52V700H336V-190H52Z" />
<glyph unicode="^" horiz-adv-x="588" d="M18 363L234 731H355L570 363H423L264 639L325 641L162 363H18Z" />
<glyph unicode="_" horiz-adv-x="687" d="M44 -181V-69H643V-181H44Z" />
<glyph unicode="`" horiz-adv-x="500" d="M325 591L131 696L202 793L369 658L325 591Z" />
<glyph unicode="a" horiz-adv-x="555" d="M364 0V331Q364 373 339 395T270 418Q229 418 197 402T137 352L50 436Q98 486 157 513T287 540Q351 540 398 520T472 460T498 359V0H364ZM219 -10Q169 -10 129 10T65 65T41 149Q41 190 56 221T100 273T174 305T278 316H434L425
221H276Q252 221 234 217T203 204T184 183T177 155Q177 138 186 125T210 105T246 98Q275 98 301 108T349 136T382 177L409 106Q388 72 358 46T293 5T219 -10Z" />
<glyph unicode="b" horiz-adv-x="649" d="M376 -10Q341 -10 308 0T248 28T203 67T180 113L212 126L206 2H71V740H214V406L186 417Q192 441 209 463T252 502T309 530T372 540Q442 540 496 505T581 407T613 265Q613 185 582 123T498 26T376 -10ZM342 111Q382 111
411 130T458 184T475 265Q475 310 459 344T412 398T342 418Q303 418 273 399T226 345T209 265Q209 219 226 185T273 131T342 111Z" />
<glyph unicode="c" horiz-adv-x="542" d="M301 -10Q225 -10 165 26T71 124T36 264Q36 343 70 405T165 504T301 540Q372 540 430 514T522 441L445 347Q431 366 410 382T365 407T314 416Q273 416 241 397T191 343T173 265Q173 223 192 189T243 135T314 115Q340 115
363 122T407 145T445 180L522 86Q489 43 429 17T301 -10Z" />
<glyph unicode="d" horiz-adv-x="647" d="M279 -10Q210 -10 155 25T68 122T36 264Q36 344 67 406T154 504T279 540Q316 540 350 529T412 497T456 453T476 402L440 395V740H581V0H447L441 122L469 118Q468 94 452 71T410 30T350 1T279 -10ZM310 108Q351 108 380
128T427 183T444 264Q444 311 427 346T381 401T310 421Q271 421 241 402T195 347T178 264Q178 218 194 183T241 128T310 108Z" />
<glyph unicode="e" horiz-adv-x="587" d="M322 -10Q236 -10 172 25T72 121T36 260Q36 322 56 373T112 462T197 519T306 540Q360 540 405 521T484 466T536 382T553 277L552 233H127L104 321H435L418 303V324Q416 352 401 373T361 406T308 419Q263 419 233 402T187
352T171 271Q171 224 191 189T248 134T337 115Q372 115 401 126T464 164L531 69Q503 44 468 26T396 -1T322 -10Z" />
<glyph unicode="f" horiz-adv-x="394" d="M113 0V566Q113 616 134 655T195 717T286 741Q321 741 351 730T405 698L362 593Q349 602 336 607T312 612Q293 612 280 606T261 588T255 557V0H184Q162 0 144 0T113 0ZM33 395V516H369V395H33Z" />
<glyph unicode="g" horiz-adv-x="663" d="M312 -230Q250 -230 189 -212T89 -164L139 -62Q171 -84 212 -97T298 -110Q351 -110 384 -94T434 -47T451 33V125L475 119Q469 88 442 61T374 16T290 -1Q217 -1 160 33T69 128T36 266Q36 346 69 408T158 505T286 540Q316
540 343 533T394 514T437 486T468 453T483 417L453 408L457 529H594V40Q594 -24 575 -74T519 -159T430 -212T312 -230ZM316 114Q358 114 389 133T438 186T456 265Q456 311 439 345T390 398T316 418Q275 418 244 399T196 345T178 266Q178 221 195 187T244 133T316
114Z" />
<glyph unicode="h" horiz-adv-x="622" d="M71 0V740H212V421L184 409Q194 445 223 474T292 522T375 540Q435 540 475 516T536 444T557 323V0H415V313Q415 349 405 373T375 408T324 418Q300 418 280 411T245 389T221 357T213 317V0H142Q120 0 102 0T71 0Z" />
<glyph unicode="i" horiz-adv-x="307" d="M83 0V529H225V0H83ZM153 638Q112 638 89 658T66 715Q66 749 89 770T154 792Q194 792 217 772T240 715Q240 680 217 659T153 638Z" />
<glyph unicode="j" horiz-adv-x="300" d="M19 -206L-35 -97Q29 -97 56 -69T84 28V529H226V-6Q226 -71 202 -115T131 -183T19 -206ZM157 638Q116 638 94 658T71 715Q71 749 94 770T157 792Q198 792 221 772T244 715Q244 680 221 659T157 638Z" />
<glyph unicode="k" horiz-adv-x="607" d="M205 159L166 277L414 529H601L205 159ZM71 0V740H213V0H71ZM429 0L239 237L340 318L600 0H429Z" />
<glyph unicode="l" horiz-adv-x="286" d="M72 0V740H214V0H72Z" />
<glyph unicode="m" horiz-adv-x="948" d="M70 0V529H207L210 428L189 422Q199 448 217 469T260 506T311 530T366 539Q408 539 440 526T496 485T531 412L510 416L517 431Q530 454 550 474T595 508T647 531T700 539Q762 539 802 514T863 441T884 320V0H742V310Q742
364 721 390T655 416Q632 416 612 409T578 387T556 355T548 315V0H406V312Q406 362 384 389T319 416Q297 416 277 409T243 388T221 356T213 315V0H70Z" />
<glyph unicode="n" horiz-adv-x="622" d="M71 0V529H208L212 421L184 409Q194 445 223 474T292 522T375 540Q435 540 475 516T536 444T557 323V0H415V313Q415 349 405 373T375 408T324 418Q300 418 280 411T245 389T221 357T213 317V0H142Q120 0 102 0T71 0Z" />
<glyph unicode="o" horiz-adv-x="632" d="M316 -10Q235 -10 172 25T73 123T36 264Q36 344 72 406T172 504T316 540Q397 540 460 505T559 407T596 264Q596 185 560 123T460 26T316 -10ZM316 113Q355 113 386 133T434 187T451 264Q452 309 435 343T386 397T316 417Q277
417 246 397T197 343T180 264Q179 221 196 187T245 133T316 113Z" />
<glyph unicode="p" horiz-adv-x="649" d="M71 -220V529H208L213 411L187 420Q193 451 220 478T289 522T375 539Q444 539 497 504T582 407T613 264Q613 186 582 124T497 27T375 -9Q329 -9 288 9T217 55T181 116L214 130V-220H71ZM343 113Q383 113 412 132T458 185T475
264Q475 309 459 343T413 397T343 416Q303 416 273 397T226 344T209 264Q209 220 226 186T273 132T343 113Z" />
<glyph unicode="q" horiz-adv-x="649" d="M436 -220V126L465 121Q463 96 447 73T404 31T346 1T279 -10Q209 -10 154 25T68 123T36 264Q36 345 67 407T153 504T275 540Q313 540 347 529T409 498T453 455T472 405L437 400L441 529H577V-220H436ZM307 113Q347 113
377 132T423 185T440 264Q440 310 424 344T377 398T307 418Q267 418 237 399T191 345T174 264Q174 220 190 186T237 132T307 113Z" />
<glyph unicode="r" horiz-adv-x="438" d="M71 0V529H208L213 359L189 395Q202 435 228 468T291 520T368 540Q386 540 401 538T428 530L390 375Q379 380 362 384T326 389Q303 389 283 381T247 357T223 320T214 273V0H71Z" />
<glyph unicode="s" horiz-adv-x="490" d="M249 -10Q176 -10 119 14T25 82L114 158Q145 125 182 111T259 96Q273 96 285 99T306 109T319 125T324 146Q324 168 306 180Q298 186 277 193T222 210Q171 223 136 240T79 281Q61 300 52 325T42 380Q42 428 70 464T144
520T246 540Q287 540 325 530T397 502T456 458L380 373Q362 391 339 404T293 426T251 435Q234 435 221 432T198 423T185 407T180 387Q180 376 185 367T201 349Q211 343 233 335T292 317Q340 304 373 288T426 251Q444 233 451 210T459 159Q459 110 432 72T357 12T249
-10Z" />
<glyph unicode="t" horiz-adv-x="394" d="M122 0V663H264V0H122ZM23 402V529H373V402H23Z" />
<glyph unicode="u" horiz-adv-x="630" d="M253 -10Q196 -10 154 15T90 88T67 202V529H209V228Q209 172 235 141T309 109Q333 109 352 116T386 138T408 171T416 213V529H558V0H423L419 109L444 121Q433 84 405 54T337 7T253 -10Z" />
<glyph unicode="v" d="M238 0L16 529H171L312 136L280 130L428 529H580L347 0H238Z" />
<glyph unicode="w" horiz-adv-x="823" d="M192 0L16 529H163L271 170L249 173L369 453H452L577 172L552 170L660 529H807L628 0H525L399 301L416 298L294 0H192Z" />
<glyph unicode="x" horiz-adv-x="592" d="M406 0L274 188L234 242L20 529H192L321 347L364 288L575 0H406ZM17 0L229 288L307 195L185 0H17ZM359 239L283 331L396 529H562L359 239Z" />
<glyph unicode="y" horiz-adv-x="608" d="M146 -230L262 41L264 -42L5 529H166L296 222Q303 206 311 183T323 139L299 129Q306 146 313 168T329 215L440 529H603L381 0L290 -230H146Z" />
<glyph unicode="z" horiz-adv-x="528" d="M50 0V91L328 450V412H50V529H471V436L205 85L201 117H478V0H50Z" />
<glyph unicode="{" horiz-adv-x="421" d="M366 -204Q315 -193 278 -177T217 -138T182 -82T170 -7L171 88Q171 141 148 167T82 195H41V305H84Q127 306 149 332T171 412L170 507Q170 589 216 635T366 704L396 604Q358 592 336 579T305 545T296 486L298 398Q298 340
266 302T167 245V256Q234 236 266 198T298 102L296 14Q296 -21 305 -41T336 -74T396 -101L366 -204Z" />
<glyph unicode="|" horiz-adv-x="288" d="M77 -193V740H211V-193H77Z" />
<glyph unicode="}" horiz-adv-x="421" d="M55 -204L25 -104Q64 -92 85 -79T115 -45T124 14L122 102Q122 160 154 198T253 255L254 244Q186 264 154 302T122 398L124 486Q124 521 116 541T86 574T25 601L55 704Q106 694 143 678T203 638T238 582T250 507L249 412Q249
360 272 333T339 305H380V195H337Q294 194 272 168T249 88L250 -7Q250 -89 204 -135T55 -204Z" />
<glyph unicode="~" horiz-adv-x="541" d="M373 210Q358 210 337 215T297 227T260 241Q246 247 229 253T197 263T174 268Q155 268 145 252T135 207H34Q34 293 69 339T177 386Q194 386 214 381T253 368T288 353Q301 348 316 342T345 332T368 328Q385 328 395 343T404
382L505 380Q505 324 490 286T446 229T373 210Z" />
<glyph unicode="&#xa0;" horiz-adv-x="306" />
<glyph unicode="&#xa1;" horiz-adv-x="283" d="M181 280Q189 218 196 152T208 20T212 -105V-177H63V-105Q63 -44 67 22T79 155T94 280H181ZM139 541Q178 541 199 519T220 456Q220 419 198 395T139 370Q101 370 80 392T58 456Q58 494 80 517T139 541Z" />
<glyph unicode="&#xa2;" horiz-adv-x="553" d="M312 78Q235 78 175 114T79 212T44 352Q44 431 79 493T174 592T312 628Q383 628 442 602T533 529L456 435Q442 454 421 470T375 495T324 504Q283 504 251 485T200 431T181 353Q181 311 200 277T251 223T325 203Q351
203 374 210T418 233T456 268L533 174Q499 131 439 105T312 78ZM255 0V109L274 146V558L255 606V704H369V605L352 563V144L369 108V0H255Z" />
<glyph unicode="&#xa3;" horiz-adv-x="628" d="M190 53L114 74Q140 89 157 125T174 198Q174 217 170 240T157 292T138 352Q126 390 120 413T112 454T109 487Q109 556 139 607T223 686T351 714Q421 714 472 691T548 625L443 544Q425 565 401 575T347 586Q316 586
292 572T255 534T241 478Q241 447 250 415T268 353Q279 320 288 287T297 227Q297 197 287 169T253 112T190 53ZM440 -22Q409 -22 375 -13T318 3Q305 7 288 12T252 21T217 25Q184 25 148 16T75 -10L23 90Q66 116 116 130T218 145Q248 145 272 140T339 120Q360 113
385 106T435 98Q460 98 487 106T545 133L610 41Q577 11 531 -5T440 -22ZM44 310V402H463V310H44Z" />
<glyph unicode="&#xa4;" horiz-adv-x="557" d="M280 114Q225 114 180 139T109 207T83 304Q83 358 109 401T180 470T280 495Q336 495 381 470T452 401T478 304Q478 250 452 207T382 139T280 114ZM130 67L40 157L129 251L219 158L130 67ZM125 366L35 451L125 540L216
453L125 366ZM280 223Q303 223 319 233T345 261T355 304Q355 328 346 347T320 376T280 387Q259 387 242 377T216 347T206 304Q206 280 215 262T242 233T280 223ZM432 72L340 161L429 252L521 162L432 72ZM430 361L340 450L432 547L523 457L430 361Z" />
<glyph unicode="&#xa5;" horiz-adv-x="680" d="M275 0V349L282 300L-1 700H171L387 391L320 394L514 700H681L410 289L425 358V0H275ZM144 110V188L572 187V109L144 110ZM144 239V317L572 315V238L144 239Z" />
<glyph unicode="&#xa6;" horiz-adv-x="294" d="M80 -202V194H215V-202H80ZM80 345V740H215V345H80Z" />
<glyph unicode="&#xa7;" horiz-adv-x="566" d="M339 129L309 205Q356 209 377 227T398 269Q398 288 384 301T338 326L237 358Q214 367 188 381T139 417T100 469T85 542Q85 590 108 629T180 691T304 714Q348 714 386 704T455 675T510 628L435 545Q413 566 391 578T346
596T301 602Q265 602 243 586T220 543Q220 527 229 514T257 491T300 473L387 443Q462 417 498 378T532 281Q530 235 506 202T440 151T339 129ZM271 -141Q227 -141 184 -129T104 -96T42 -49L111 42Q152 5 194 -12T270 -30Q312 -30 335 -16T358 28Q358 43 347 55T316
76T274 94L178 126Q108 151 73 190T38 287Q38 329 59 363T122 418T221 441L250 361Q227 358 211 350T186 328T177 298Q177 277 194 262T248 235L326 210Q373 193 410 171T470 117T493 36Q493 -14 469 -54T397 -117T271 -141Z" />
<glyph unicode="&#xa8;" horiz-adv-x="500" d="M364 631Q325 631 304 652T282 710Q282 745 304 767T364 789Q402 789 423 768T445 710Q445 675 423 653T364 631ZM136 631Q98 631 77 652T56 710Q56 745 77 767T137 789Q176 789 197 768T218 710Q218 675 196 653T136 631Z" />
<glyph unicode="&#xa9;" horiz-adv-x="789" d="M394 -14Q318 -14 252 13T136 91T58 207T30 350Q30 426 58 492T136 609T252 686T394 714Q469 714 535 687T651 609T730 493T758 350Q758 274 730 208T652 91T535 14T394 -14ZM411 143Q352 143 304 170T227 243T198
350Q198 407 226 454T303 529T411 557Q446 557 480 545T544 510L499 414Q474 433 455 440T419 447Q390 447 367 434T331 399T318 350Q318 321 331 299T367 264T419 252Q438 252 459 259T502 284L548 186Q517 165 482 154T411 143ZM394 60Q454 60 506 82T599 145T661
237T683 350Q683 411 661 463T599 555T507 617T394 640Q333 640 281 618T190 556T128 464T105 350Q105 290 127 238T189 145T281 83T394 60Z" />
<glyph unicode="&#xaa;" horiz-adv-x="382" d="M140 391Q103 391 75 412T32 472T16 562Q16 608 33 644T82 700T152 721Q206 721 232 689T258 595L239 648V715H348V401H239V474L258 509Q258 479 243 452T202 408T140 391ZM181 474Q209 474 226 496T243 556Q243
594 227 616T180 638Q157 638 141 616T125 561Q125 535 131 515T150 485T181 474Z" />
<glyph unicode="&#xab;" horiz-adv-x="536" d="M416 35L246 254V262L415 485L497 427L378 246L377 273L498 92L416 35ZM180 35L10 254V262L179 485L261 427L142 246L141 273L262 92L180 35Z" />
<glyph unicode="&#xac;" horiz-adv-x="670" d="M490 110V318L538 286H45V412H625V110H490Z" />
<glyph unicode="&#xad;" horiz-adv-x="433" d="M56 221V353H382V221H56Z" />
<glyph unicode="&#xae;" horiz-adv-x="506" d="M259 244Q191 244 136 276T47 363T14 484Q14 551 47 605T136 692T259 724Q309 724 352 706T429 654T480 578T499 484Q499 418 467 363T380 276T259 244ZM259 309Q308 309 348 332T412 395T436 484Q436 533 412 573T348
636T259 660Q209 660 168 637T103 573T78 484Q78 435 102 395T167 332T259 309ZM292 367L256 460L319 476L370 367H292ZM163 367V606H281Q318 606 340 586T362 532Q362 498 339 477T281 456H220L236 466V367H163ZM236 496L222 503H261Q275 503 283 509T292 525Q292
536 285 542T263 548H219L236 556V496Z" />
<glyph unicode="&#xaf;" horiz-adv-x="424" d="M91 636V729H409V636H91Z" />
<glyph unicode="&#xb0;" horiz-adv-x="532" d="M266 395Q220 395 183 416T125 473T103 553Q103 598 124 634T182 692T266 713Q313 713 350 692T408 635T429 554Q429 510 408 474T349 416T266 395ZM266 482Q285 482 299 492T323 518T332 554Q332 574 324 590T300
615T266 625Q247 625 232 616T209 590T200 553Q200 533 209 517T233 491T266 482Z" />
<glyph unicode="&#xb1;" horiz-adv-x="619" d="M61 302V419H557V302H61ZM62 -6V113H558V-6H62ZM242 168V561H378V168H242Z" />
<glyph unicode="&#xb2;" horiz-adv-x="358" d="M62 418L49 498L150 585Q163 595 177 608T201 638T211 669Q211 683 204 691T182 700Q163 700 144 686T109 647L39 697Q68 741 105 765T190 790Q245 790 278 759T312 683Q312 647 294 619T251 568T201 529L143 481L146
501H319V418H62Z" />
<glyph unicode="&#xb3;" horiz-adv-x="351" d="M172 412Q136 412 105 421T43 446L84 517Q102 506 119 501T155 495Q179 495 194 507T209 539Q209 555 196 565T158 576Q145 576 131 573T103 565L81 626L208 719L220 699H69V783H276L285 705L173 621L165 628Q173
633 183 635T201 638Q249 638 278 610T308 534Q308 498 290 471T240 428T172 412Z" />
<glyph unicode="&#xb4;" horiz-adv-x="500" d="M175 591L131 657L298 793L369 695L175 591Z" />
<glyph unicode="&#xb5;" horiz-adv-x="621" d="M77 -160V529H214V223Q214 185 224 160T254 122T303 109Q327 109 347 117T382 141T405 177T413 221V529H551V0H419L416 105L427 93Q411 57 387 35T333 2T266 -11Q251 -11 238 -7T214 6T199 24L210 63L214 -160H77Z" />
<glyph unicode="&#xb6;" horiz-adv-x="747" d="M246 0V315L285 275H233Q179 275 137 302T70 376T45 485Q45 550 73 598T151 673T270 700H657V0H510V659L549 594H326L393 651V0H246Z" />
<glyph unicode="&#xb7;" horiz-adv-x="247" d="M123 253Q85 253 64 275T43 338Q43 376 65 400T123 424Q162 424 183 402T204 338Q204 300 182 277T123 253Z" />
<glyph unicode="&#xb8;" horiz-adv-x="500" d="M154 -245L145 -178Q167 -178 191 -172T231 -156T247 -133Q247 -121 234 -114T203 -103T169 -99L154 -87L224 25H299L254 -43Q306 -51 331 -76T356 -139Q356 -168 338 -188T289 -222T224 -240T154 -245Z" />
<glyph unicode="&#xb9;" horiz-adv-x="287" d="M119 430V714L132 682L75 646L33 724L144 789H220V430H169Q157 430 145 430T119 430Z" />
<glyph unicode="&#xba;" horiz-adv-x="383" d="M191 392Q144 392 107 413T49 470T27 551Q27 598 48 634T107 692T191 713Q238 713 275 692T334 634T356 551Q356 506 335 470T276 413T191 392ZM190 473Q218 473 233 495T249 552Q249 588 234 610T190 632Q164 632
148 610T132 552Q132 517 148 495T190 473Z" />
<glyph unicode="&#xbb;" horiz-adv-x="538" d="M358 36L275 94L396 275L395 248L276 429L357 486L527 267V259L358 36ZM121 36L38 94L159 275L158 248L39 429L120 486L290 267V259L121 36Z" />
<glyph unicode="&#xbc;" horiz-adv-x="811" d="M127 360V644L140 612L83 576L41 654L152 719H228V360H177Q165 360 153 360T127 360ZM96 0L563 700H694L226 0H96ZM699 156H774V74H699V156ZM521 122L505 156H649L620 128V282L649 271L521 122ZM715 -1H610V102L634
74H466L447 151L623 364H715V-1Z" />
<glyph unicode="&#xbd;" horiz-adv-x="812" d="M127 360V644L140 612L83 576L41 654L152 719H228V360H177Q165 360 153 360T127 360ZM99 0L566 700H697L229 0H99ZM522 0L509 80L610 167Q623 177 637 190T661 220T671 251Q671 265 664 273T642 282Q623 282 604
268T569 229L499 279Q528 323 565 347T650 372Q705 372 738 341T772 265Q772 229 754 201T711 150T661 111L603 63L606 83H779V0H522Z" />
<glyph unicode="&#xbe;" horiz-adv-x="829" d="M150 342Q114 342 83 351T21 376L62 447Q80 436 97 431T133 425Q157 425 172 437T187 469Q187 485 174 495T136 506Q123 506 109 503T81 495L59 556L186 649L198 629H47V713H254L263 635L151 551L143 558Q151 563
161 565T179 568Q227 568 256 540T286 464Q286 428 268 401T218 358T150 342ZM122 0L589 700H720L252 0H122ZM717 156H792V74H717V156ZM539 122L523 156H667L638 128V282L667 271L539 122ZM733 -1H628V102L652 74H484L465 151L641 364H733V-1Z" />
<glyph unicode="&#xbf;" horiz-adv-x="528" d="M319 303L350 169Q309 159 276 146T219 115T182 77T169 28Q169 6 180 -11T210 -38T253 -48Q281 -48 307 -38T358 -7T411 43L488 -53Q458 -89 420 -117T338 -162T242 -179Q175 -179 127 -153T52 -82T26 21Q26 70 50
112T118 188T223 250L236 303H319ZM356 460Q356 422 334 398T275 374Q236 374 215 396T194 460Q194 498 216 521T275 545Q313 545 334 523T356 460Z" />
<glyph unicode="&#xc0;" horiz-adv-x="698" d="M8 0L283 700H417L690 0H537L395 377Q389 394 381 419T363 472T347 525T334 567L361 568Q355 546 348 522T332 471T315 421T298 375L157 0H8ZM136 147L186 269H505L556 147H136ZM439 750L221 827L275 936L475 821L439 750Z" />
<glyph unicode="&#xc1;" horiz-adv-x="698" d="M8 0L283 700H417L690 0H537L395 377Q389 394 381 419T363 472T347 525T334 567L361 568Q355 546 348 522T332 471T315 421T298 375L157 0H8ZM136 147L186 269H505L556 147H136ZM268 750L234 821L434 936L486 827L268 750Z" />
<glyph unicode="&#xc2;" horiz-adv-x="698" d="M8 0L283 700H417L690 0H537L395 377Q389 394 381 419T363 472T347 525T334 567L361 568Q355 546 348 522T332 471T315 421T298 375L157 0H8ZM136 147L186 269H505L556 147H136ZM220 754L173 804L306 909H391L523
804L477 754L334 823H363L220 754Z" />
<glyph unicode="&#xc3;" horiz-adv-x="698" d="M8 0L283 700H417L690 0H537L395 377Q389 394 381 419T363 472T347 525T334 567L361 568Q355 546 348 522T332 471T315 421T298 375L157 0H8ZM136 147L186 269H505L556 147H136ZM425 767Q404 767 383 774T338 790Q320
798 308 802T286 806Q273 806 265 796T256 767H163Q163 830 199 865T287 900Q306 900 324 895T367 878Q382 872 394 868T415 863Q429 863 436 873T442 900H534Q534 865 521 835T483 786T425 767Z" />
<glyph unicode="&#xc4;" horiz-adv-x="698" d="M8 0L283 700H417L690 0H537L395 377Q389 394 381 419T363 472T347 525T334 567L361 568Q355 546 348 522T332 471T315 421T298 375L157 0H8ZM136 147L186 269H505L556 147H136ZM465 756Q424 756 404 776T384 834Q384
866 404 889T465 912Q506 912 526 891T546 834Q546 802 525 779T465 756ZM233 756Q193 756 173 776T152 834Q152 866 173 889T233 912Q274 912 294 891T315 834Q315 802 294 779T233 756Z" />
<glyph unicode="&#xc5;" horiz-adv-x="698" d="M8 0L283 700H417L690 0H537L395 377Q389 394 381 419T363 472T347 525T334 567L361 568Q355 546 348 522T332 471T315 421T298 375L157 0H8ZM136 147L186 269H505L556 147H136ZM348 675Q315 675 287 691T242 734T224
792Q224 825 241 852T286 896T348 913Q382 913 410 897T455 853T473 792Q473 761 456 734T410 691T348 675ZM348 750Q366 750 379 762T392 792Q392 811 379 822T348 834Q331 834 318 822T305 792Q305 775 317 763T348 750Z" />
<glyph unicode="&#xc6;" horiz-adv-x="1038" d="M-4 0L484 700H973V575H646V415H928V293H646V125H973V0H504V145H238L321 265H504V555L529 547L155 0H-4Z" />
<glyph unicode="&#xc7;" horiz-adv-x="688" d="M397 -10Q320 -10 256 16T144 91T71 206T45 351Q45 428 72 493T148 608T262 684T405 711Q455 711 503 698T592 658T662 596L568 491Q533 529 492 549T404 569Q361 569 324 554T258 509T214 440T198 351Q198 301 213
261T258 192T327 148T417 132Q449 132 478 141T534 166T580 203L653 86Q630 59 589 37T498 3T397 -10ZM292 -245L283 -178Q305 -178 329 -172T369 -156T385 -133Q385 -121 372 -114T341 -103T309 -99L292 -87L362 25H437L393 -43Q444 -51 469 -76T494 -139Q494
-168 476 -188T428 -222T362 -240T292 -245Z" />
<glyph unicode="&#xc8;" horiz-adv-x="635" d="M91 0V700H563V568H238V132H570V0H91ZM161 293V421H515V293H161ZM427 750L209 827L263 936L463 821L427 750Z" />
<glyph unicode="&#xc9;" horiz-adv-x="635" d="M91 0V700H563V568H238V132H570V0H91ZM161 293V421H515V293H161ZM256 750L222 821L422 936L474 827L256 750Z" />
<glyph unicode="&#xca;" horiz-adv-x="635" d="M91 0V700H563V568H238V132H570V0H91ZM161 293V421H515V293H161ZM209 754L162 804L295 909H380L512 804L466 754L323 823H352L209 754Z" />
<glyph unicode="&#xcb;" horiz-adv-x="635" d="M91 0V700H563V568H238V132H570V0H91ZM161 293V421H515V293H161ZM453 756Q412 756 392 776T372 834Q372 866 392 889T453 912Q494 912 514 891T534 834Q534 802 513 779T453 756ZM221 756Q181 756 161 776T140 834Q140
866 161 889T221 912Q262 912 282 891T303 834Q303 802 282 779T221 756Z" />
<glyph unicode="&#xcc;" horiz-adv-x="529" d="M73 0V129H190V571H73V700H456V571H340V129H456V0H73ZM355 750L137 827L191 936L391 821L355 750Z" />
<glyph unicode="&#xcd;" horiz-adv-x="529" d="M73 0V129H190V571H73V700H456V571H340V129H456V0H73ZM183 750L149 821L349 936L401 827L183 750Z" />
<glyph unicode="&#xce;" horiz-adv-x="529" d="M73 0V129H190V571H73V700H456V571H340V129H456V0H73ZM136 754L89 804L222 909H307L439 804L393 754L250 823H279L136 754Z" />
<glyph unicode="&#xcf;" horiz-adv-x="529" d="M73 0V129H190V571H73V700H456V571H340V129H456V0H73ZM380 756Q339 756 319 776T299 834Q299 866 319 889T380 912Q421 912 441 891T461 834Q461 802 440 779T380 756ZM148 756Q108 756 88 776T67 834Q67 866 88
889T148 912Q189 912 209 891T230 834Q230 802 209 779T148 756Z" />
<glyph unicode="&#xd0;" horiz-adv-x="764" d="M40 295V405H346V295H40ZM91 0V700H379Q455 700 518 675T626 603T695 492T719 350Q719 272 695 208T626 98T519 26T379 0H91ZM241 110L225 135H374Q419 135 454 150T515 193T554 261T567 350Q567 399 554 438T516
506T455 550T374 565H222L241 588V110Z" />
<glyph unicode="&#xd1;" horiz-adv-x="803" d="M91 0V700H225L613 176H586Q579 227 574 277T568 385T566 512V700H712V0H576L181 527H217Q224 461 228 418T234 347T237 296T238 250V0H91ZM478 767Q457 767 436 774T391 790Q373 798 361 802T339 806Q326 806 318
796T309 767H216Q216 830 252 865T340 900Q359 900 377 895T420 878Q435 872 447 868T468 863Q482 863 489 873T495 900H587Q587 865 574 835T536 786T478 767Z" />
<glyph unicode="&#xd2;" horiz-adv-x="801" d="M401 -10Q324 -10 259 17T146 92T72 207T45 352Q45 430 71 496T145 611T258 687T401 714Q478 714 542 687T655 611T729 496T756 352Q756 274 730 208T655 93T543 17T401 -10ZM401 132Q445 132 482 148T546 194T589
264T604 352Q604 399 589 439T547 509T482 555T401 572Q357 572 320 556T255 510T212 440T197 351Q197 288 223 239T295 161T401 132ZM490 750L272 827L326 936L526 821L490 750Z" />
<glyph unicode="&#xd3;" horiz-adv-x="801" d="M401 -10Q324 -10 259 17T146 92T72 207T45 352Q45 430 71 496T145 611T258 687T401 714Q478 714 542 687T655 611T729 496T756 352Q756 274 730 208T655 93T543 17T401 -10ZM401 132Q445 132 482 148T546 194T589
264T604 352Q604 399 589 439T547 509T482 555T401 572Q357 572 320 556T255 510T212 440T197 351Q197 288 223 239T295 161T401 132ZM319 750L285 821L485 936L537 827L319 750Z" />
<glyph unicode="&#xd4;" horiz-adv-x="801" d="M401 -10Q324 -10 259 17T146 92T72 207T45 352Q45 430 71 496T145 611T258 687T401 714Q478 714 542 687T655 611T729 496T756 352Q756 274 730 208T655 93T543 17T401 -10ZM401 132Q445 132 482 148T546 194T589
264T604 352Q604 399 589 439T547 509T482 555T401 572Q357 572 320 556T255 510T212 440T197 351Q197 288 223 239T295 161T401 132ZM271 754L224 804L357 909H442L574 804L528 754L385 823H414L271 754Z" />
<glyph unicode="&#xd5;" horiz-adv-x="801" d="M401 -10Q324 -10 259 17T146 92T72 207T45 352Q45 430 71 496T145 611T258 687T401 714Q478 714 542 687T655 611T729 496T756 352Q756 274 730 208T655 93T543 17T401 -10ZM401 132Q445 132 482 148T546 194T589
264T604 352Q604 399 589 439T547 509T482 555T401 572Q357 572 320 556T255 510T212 440T197 351Q197 288 223 239T295 161T401 132ZM477 767Q456 767 435 774T390 790Q372 798 360 802T338 806Q325 806 317 796T308 767H215Q215 830 251 865T339 900Q358 900
376 895T419 878Q434 872 446 868T467 863Q481 863 488 873T494 900H586Q586 865 573 835T535 786T477 767Z" />
<glyph unicode="&#xd6;" horiz-adv-x="801" d="M401 -10Q324 -10 259 17T146 92T72 207T45 352Q45 430 71 496T145 611T258 687T401 714Q478 714 542 687T655 611T729 496T756 352Q756 274 730 208T655 93T543 17T401 -10ZM401 132Q445 132 482 148T546 194T589
264T604 352Q604 399 589 439T547 509T482 555T401 572Q357 572 320 556T255 510T212 440T197 351Q197 288 223 239T295 161T401 132ZM516 756Q475 756 455 776T435 834Q435 866 455 889T516 912Q557 912 577 891T597 834Q597 802 576 779T516 756ZM284 756Q244
756 224 776T203 834Q203 866 224 889T284 912Q325 912 345 891T366 834Q366 802 345 779T284 756Z" />
<glyph unicode="&#xd7;" horiz-adv-x="516" d="M393 61L36 417L122 500L480 144L393 61ZM121 56L39 143L395 500L478 415L121 56Z" />
<glyph unicode="&#xd8;" horiz-adv-x="793" d="M134 -33L70 21L659 742L728 694L134 -33ZM400 -10Q323 -10 258 17T145 92T71 207T44 352Q44 430 70 496T144 611T257 687T400 714Q477 714 541 687T654 611T728 496T755 352Q755 274 729 208T654 93T542 17T400
-10ZM400 132Q444 132 481 148T545 194T588 264T603 352Q603 399 588 439T546 509T481 555T400 572Q356 572 319 556T254 510T211 440T196 351Q196 288 222 239T294 161T400 132Z" />
<glyph unicode="&#xd9;" horiz-adv-x="756" d="M379 -6Q294 -6 228 29T123 127T85 269V701H235V278Q235 236 254 203T307 149T379 129Q420 129 453 149T506 202T526 278V701H671V269Q671 190 634 128T530 30T379 -6ZM468 750L250 827L304 936L504 821L468 750Z" />
<glyph unicode="&#xda;" horiz-adv-x="756" d="M379 -6Q294 -6 228 29T123 127T85 269V701H235V278Q235 236 254 203T307 149T379 129Q420 129 453 149T506 202T526 278V701H671V269Q671 190 634 128T530 30T379 -6ZM297 750L263 821L463 936L515 827L297 750Z" />
<glyph unicode="&#xdb;" horiz-adv-x="756" d="M379 -6Q294 -6 228 29T123 127T85 269V701H235V278Q235 236 254 203T307 149T379 129Q420 129 453 149T506 202T526 278V701H671V269Q671 190 634 128T530 30T379 -6ZM249 754L202 804L335 909H420L552 804L506
754L363 823H392L249 754Z" />
<glyph unicode="&#xdc;" horiz-adv-x="756" d="M379 -6Q294 -6 228 29T123 127T85 269V701H235V278Q235 236 254 203T307 149T379 129Q420 129 453 149T506 202T526 278V701H671V269Q671 190 634 128T530 30T379 -6ZM493 756Q452 756 432 776T412 834Q412 866
432 889T493 912Q534 912 554 891T574 834Q574 802 553 779T493 756ZM261 756Q221 756 201 776T180 834Q180 866 201 889T261 912Q302 912 322 891T343 834Q343 802 322 779T261 756Z" />
<glyph unicode="&#xdd;" horiz-adv-x="680" d="M275 0V349L282 300L-1 700H171L387 391L320 394L514 700H681L410 289L425 358V0H275ZM258 750L224 821L424 936L476 827L258 750Z" />
<glyph unicode="&#xde;" horiz-adv-x="653" d="M91 0V700H241V584H388Q451 584 501 555T581 474T610 359Q610 294 581 242T502 159T388 128H241V0H91ZM241 264H372Q396 264 415 276T446 309T458 357Q458 384 446 404T415 436T372 448H241V264Z" />
<glyph unicode="&#xdf;" horiz-adv-x="669" d="M427 -10Q383 -10 350 4T290 46L349 137Q371 120 388 113T424 106Q459 106 480 131T502 198Q502 240 483 271T428 325T344 361V440Q368 450 385 461T413 485T429 510T434 539Q434 571 411 589T346 607Q301 607 276
578T251 500V0H114V499Q114 569 142 622T224 704T352 734Q415 734 463 714T538 657T566 569Q566 538 553 509T516 455T459 415L457 440Q510 423 551 390T615 309T638 204Q638 143 611 95T535 19T427 -10ZM33 378V501H179V378H33Z" />
<glyph unicode="&#xe0;" horiz-adv-x="555" d="M364 0V331Q364 373 339 395T270 418Q229 418 197 402T137 352L50 436Q98 486 157 513T287 540Q351 540 398 520T472 460T498 359V0H364ZM219 -10Q169 -10 129 10T65 65T41 149Q41 190 56 221T100 273T174 305T278
316H434L425 221H276Q252 221 234 217T203 204T184 183T177 155Q177 138 186 125T210 105T246 98Q275 98 301 108T349 136T382 177L409 106Q388 72 358 46T293 5T219 -10ZM333 595L139 700L210 797L377 662L333 595Z" />
<glyph unicode="&#xe1;" horiz-adv-x="555" d="M364 0V331Q364 373 339 395T270 418Q229 418 197 402T137 352L50 436Q98 486 157 513T287 540Q351 540 398 520T472 460T498 359V0H364ZM219 -10Q169 -10 129 10T65 65T41 149Q41 190 56 221T100 273T174 305T278
316H434L425 221H276Q252 221 234 217T203 204T184 183T177 155Q177 138 186 125T210 105T246 98Q275 98 301 108T349 136T382 177L409 106Q388 72 358 46T293 5T219 -10ZM202 595L158 661L325 797L396 699L202 595Z" />
<glyph unicode="&#xe2;" horiz-adv-x="555" d="M364 0V331Q364 373 339 395T270 418Q229 418 197 402T137 352L50 436Q98 486 157 513T287 540Q351 540 398 520T472 460T498 359V0H364ZM219 -10Q169 -10 129 10T65 65T41 149Q41 190 56 221T100 273T174 305T278
316H434L425 221H276Q252 221 234 217T203 204T184 183T177 155Q177 138 186 125T210 105T246 98Q275 98 301 108T349 136T382 177L409 106Q388 72 358 46T293 5T219 -10ZM149 603L97 647L232 771H324L459 647L407 603L263 684H293L149 603Z" />
<glyph unicode="&#xe3;" horiz-adv-x="555" d="M364 0V331Q364 373 339 395T270 418Q229 418 197 402T137 352L50 436Q98 486 157 513T287 540Q351 540 398 520T472 460T498 359V0H364ZM219 -10Q169 -10 129 10T65 65T41 149Q41 190 56 221T100 273T174 305T278
316H434L425 221H276Q252 221 234 217T203 204T184 183T177 155Q177 138 186 125T210 105T246 98Q275 98 301 108T349 136T382 177L409 106Q388 72 358 46T293 5T219 -10ZM339 614Q322 614 306 621T269 642Q251 657 241 663T223 669Q209 669 199 657T185 618L103
628Q103 683 134 722T217 761Q235 761 250 755T286 733Q302 721 312 714T333 706Q347 706 356 719T370 757L452 746Q451 711 437 681T398 633T339 614Z" />
<glyph unicode="&#xe4;" horiz-adv-x="555" d="M364 0V331Q364 373 339 395T270 418Q229 418 197 402T137 352L50 436Q98 486 157 513T287 540Q351 540 398 520T472 460T498 359V0H364ZM219 -10Q169 -10 129 10T65 65T41 149Q41 190 56 221T100 273T174 305T278
316H434L425 221H276Q252 221 234 217T203 204T184 183T177 155Q177 138 186 125T210 105T246 98Q275 98 301 108T349 136T382 177L409 106Q388 72 358 46T293 5T219 -10ZM392 635Q353 635 332 656T310 714Q310 749 332 771T392 793Q430 793 451 772T473 714Q473
679 451 657T392 635ZM164 635Q126 635 105 656T84 714Q84 749 105 771T165 793Q204 793 225 772T246 714Q246 679 224 657T164 635Z" />
<glyph unicode="&#xe5;" horiz-adv-x="555" d="M364 0V331Q364 373 339 395T270 418Q229 418 197 402T137 352L50 436Q98 486 157 513T287 540Q351 540 398 520T472 460T498 359V0H364ZM219 -10Q169 -10 129 10T65 65T41 149Q41 190 56 221T100 273T174 305T278
316H434L425 221H276Q252 221 234 217T203 204T184 183T177 155Q177 138 186 125T210 105T246 98Q275 98 301 108T349 136T382 177L409 106Q388 72 358 46T293 5T219 -10ZM277 605Q246 605 220 620T177 661T160 716Q160 747 176 773T218 814T277 830Q309 830 335
815T378 774T394 716Q394 686 378 661T336 620T277 605ZM277 678Q295 678 306 689T318 716Q318 735 306 746T277 757Q259 757 248 746T236 717Q236 701 248 690T277 678Z" />
<glyph unicode="&#xe6;" horiz-adv-x="906" d="M222 -10Q171 -10 130 10T65 65T41 149Q41 190 56 221T102 274T177 305T281 316H748L737 303V325Q734 352 719 373T681 406T628 418Q585 418 555 401T510 352T495 271Q495 226 516 191T577 135T667 115Q703 115 733
126T796 164L860 68Q831 43 797 25T725 -1T651 -10Q567 -10 504 24T405 119T370 260Q370 321 389 372T443 461T525 519T626 540Q698 540 753 506T840 412T872 276L871 229H278Q254 229 236 224T205 210T187 188T180 158Q180 140 188 127T212 106T248 98Q278 98
304 108T352 136T385 177L434 98Q412 66 379 42T305 4T222 -10ZM368 251V341Q368 359 361 373T340 397T310 412T271 418Q230 418 200 402T145 352L58 437Q98 485 157 512T287 540Q334 540 372 530T437 499T479 447T493 375V255L368 251Z" />
<glyph unicode="&#xe7;" horiz-adv-x="542" d="M301 -10Q225 -10 165 26T71 124T36 264Q36 343 70 405T165 504T301 540Q372 540 430 514T522 441L445 347Q431 366 410 382T365 407T314 416Q273 416 241 397T191 343T173 265Q173 223 192 189T243 135T314 115Q340
115 363 122T407 145T445 180L522 86Q489 43 429 17T301 -10ZM205 -245L196 -178Q218 -178 242 -172T282 -156T298 -133Q298 -121 285 -114T254 -103T220 -99L205 -87L275 25H350L305 -43Q357 -51 382 -76T407 -139Q407 -168 389 -188T340 -222T275 -240T205 -245Z"
/>
<glyph unicode="&#xe8;" horiz-adv-x="587" d="M322 -10Q236 -10 172 25T72 121T36 260Q36 322 56 373T112 462T197 519T306 540Q360 540 405 521T484 466T536 382T553 277L552 233H127L104 321H435L418 303V324Q416 352 401 373T361 406T308 419Q263 419 233
402T187 352T171 271Q171 224 191 189T248 134T337 115Q372 115 401 126T464 164L531 69Q503 44 468 26T396 -1T322 -10ZM361 595L167 700L238 797L405 662L361 595Z" />
<glyph unicode="&#xe9;" horiz-adv-x="587" d="M322 -10Q236 -10 172 25T72 121T36 260Q36 322 56 373T112 462T197 519T306 540Q360 540 405 521T484 466T536 382T553 277L552 233H127L104 321H435L418 303V324Q416 352 401 373T361 406T308 419Q263 419 233
402T187 352T171 271Q171 224 191 189T248 134T337 115Q372 115 401 126T464 164L531 69Q503 44 468 26T396 -1T322 -10ZM231 595L187 661L354 797L425 699L231 595Z" />
<glyph unicode="&#xea;" horiz-adv-x="587" d="M322 -10Q236 -10 172 25T72 121T36 260Q36 322 56 373T112 462T197 519T306 540Q360 540 405 521T484 466T536 382T553 277L552 233H127L104 321H435L418 303V324Q416 352 401 373T361 406T308 419Q263 419 233
402T187 352T171 271Q171 224 191 189T248 134T337 115Q372 115 401 126T464 164L531 69Q503 44 468 26T396 -1T322 -10ZM177 603L125 647L260 771H352L487 647L435 603L291 684H321L177 603Z" />
<glyph unicode="&#xeb;" horiz-adv-x="587" d="M322 -10Q236 -10 172 25T72 121T36 260Q36 322 56 373T112 462T197 519T306 540Q360 540 405 521T484 466T536 382T553 277L552 233H127L104 321H435L418 303V324Q416 352 401 373T361 406T308 419Q263 419 233
402T187 352T171 271Q171 224 191 189T248 134T337 115Q372 115 401 126T464 164L531 69Q503 44 468 26T396 -1T322 -10ZM419 635Q380 635 359 656T337 714Q337 749 359 771T419 793Q457 793 478 772T500 714Q500 679 478 657T419 635ZM191 635Q153 635 132 656T111
714Q111 749 132 771T192 793Q231 793 252 772T273 714Q273 679 251 657T191 635Z" />
<glyph unicode="&#xec;" horiz-adv-x="274" d="M66 0V529H208V0H66ZM192 595L-2 700L69 797L236 662L192 595Z" />
<glyph unicode="&#xed;" horiz-adv-x="274" d="M66 0V529H208V0H66ZM61 595L17 661L184 797L255 699L61 595Z" />
<glyph unicode="&#xee;" horiz-adv-x="274" d="M66 0V529H208V0H66ZM8 603L-44 647L91 771H183L318 647L266 603L122 684H152L8 603Z" />
<glyph unicode="&#xef;" horiz-adv-x="274" d="M66 0V529H208V0H66ZM250 635Q211 635 190 656T168 714Q168 749 190 771T250 793Q288 793 309 772T331 714Q331 679 309 657T250 635ZM22 635Q-16 635 -37 656T-58 714Q-58 749 -37 771T23 793Q62 793 83 772T104
714Q104 679 82 657T22 635Z" />
<glyph unicode="&#xf0;" horiz-adv-x="589" d="M294 -7Q220 -7 162 28T70 124T36 258Q36 311 56 358T110 442T189 500T282 521Q332 521 371 500T437 440T475 347L395 379Q392 435 378 477T338 552T270 608T168 649L215 744Q277 729 329 701T422 631T493 538T537
422T553 286Q553 199 520 133T429 30T294 -7ZM294 116Q330 116 358 135T403 188T420 262Q420 302 404 334T359 386T294 405Q259 405 231 386T185 335T168 262Q168 221 185 188T230 136T294 116ZM152 520L139 586L292 625L349 650L496 683L514 616L401 590L358 568L152
520Z" />
<glyph unicode="&#xf1;" horiz-adv-x="622" d="M71 0V529H208L212 421L184 409Q194 445 223 474T292 522T375 540Q435 540 475 516T536 444T557 323V0H415V313Q415 349 405 373T375 408T324 418Q300 418 280 411T245 389T221 357T213 317V0H142Q120 0 102 0T71
0ZM404 614Q387 614 371 621T334 642Q316 657 306 663T288 669Q274 669 264 657T250 618L168 628Q168 683 199 722T282 761Q300 761 315 755T351 733Q367 721 377 714T398 706Q412 706 421 719T435 757L517 746Q516 711 502 681T463 633T404 614Z" />
<glyph unicode="&#xf2;" horiz-adv-x="632" d="M316 -10Q235 -10 172 25T73 123T36 264Q36 344 72 406T172 504T316 540Q397 540 460 505T559 407T596 264Q596 185 560 123T460 26T316 -10ZM316 113Q355 113 386 133T434 187T451 264Q452 309 435 343T386 397T316
417Q277 417 246 397T197 343T180 264Q179 221 196 187T245 133T316 113ZM371 595L177 700L248 797L415 662L371 595Z" />
<glyph unicode="&#xf3;" horiz-adv-x="632" d="M316 -10Q235 -10 172 25T73 123T36 264Q36 344 72 406T172 504T316 540Q397 540 460 505T559 407T596 264Q596 185 560 123T460 26T316 -10ZM316 113Q355 113 386 133T434 187T451 264Q452 309 435 343T386 397T316
417Q277 417 246 397T197 343T180 264Q179 221 196 187T245 133T316 113ZM241 595L197 661L364 797L435 699L241 595Z" />
<glyph unicode="&#xf4;" horiz-adv-x="632" d="M316 -10Q235 -10 172 25T73 123T36 264Q36 344 72 406T172 504T316 540Q397 540 460 505T559 407T596 264Q596 185 560 123T460 26T316 -10ZM316 113Q355 113 386 133T434 187T451 264Q452 309 435 343T386 397T316
417Q277 417 246 397T197 343T180 264Q179 221 196 187T245 133T316 113ZM187 603L135 647L270 771H362L497 647L445 603L301 684H331L187 603Z" />
<glyph unicode="&#xf5;" horiz-adv-x="632" d="M316 -10Q235 -10 172 25T73 123T36 264Q36 344 72 406T172 504T316 540Q397 540 460 505T559 407T596 264Q596 185 560 123T460 26T316 -10ZM316 113Q355 113 386 133T434 187T451 264Q452 309 435 343T386 397T316
417Q277 417 246 397T197 343T180 264Q179 221 196 187T245 133T316 113ZM377 614Q360 614 344 621T307 642Q289 657 279 663T261 669Q247 669 237 657T223 618L141 628Q141 683 172 722T255 761Q273 761 288 755T324 733Q340 721 350 714T371 706Q385 706 394
719T408 757L490 746Q489 711 475 681T436 633T377 614Z" />
<glyph unicode="&#xf6;" horiz-adv-x="632" d="M316 -10Q235 -10 172 25T73 123T36 264Q36 344 72 406T172 504T316 540Q397 540 460 505T559 407T596 264Q596 185 560 123T460 26T316 -10ZM316 113Q355 113 386 133T434 187T451 264Q452 309 435 343T386 397T316
417Q277 417 246 397T197 343T180 264Q179 221 196 187T245 133T316 113ZM429 635Q390 635 369 656T347 714Q347 749 369 771T429 793Q467 793 488 772T510 714Q510 679 488 657T429 635ZM201 635Q163 635 142 656T121 714Q121 749 142 771T202 793Q241 793 262
772T283 714Q283 679 261 657T201 635Z" />
<glyph unicode="&#xf7;" horiz-adv-x="597" d="M45 204V321H552V204H45ZM295 -12Q271 -12 253 -2T223 25T212 67Q212 89 223 107T253 135T295 145Q320 145 338 135T366 108T377 67Q377 45 367 27T338 -1T295 -12ZM295 377Q271 377 253 387T223 414T212 455Q212
477 223 495T253 523T295 534Q320 534 338 524T366 497T377 455Q377 433 367 416T338 388T295 377Z" />
<glyph unicode="&#xf8;" horiz-adv-x="632" d="M116 -36L49 14L508 555L576 505L116 -36ZM316 -10Q235 -10 172 25T73 123T36 264Q36 344 72 406T172 504T316 540Q397 540 460 505T559 407T596 264Q596 185 560 123T460 26T316 -10ZM316 113Q355 113 386 133T434
187T451 264Q452 309 435 343T386 397T316 417Q277 417 246 397T197 343T180 264Q179 221 196 187T245 133T316 113Z" />
<glyph unicode="&#xf9;" horiz-adv-x="630" d="M253 -10Q196 -10 154 15T90 88T67 202V529H209V228Q209 172 235 141T309 109Q333 109 352 116T386 138T408 171T416 213V529H558V0H423L419 109L444 121Q433 84 405 54T337 7T253 -10ZM371 595L177 700L248 797L415
662L371 595Z" />
<glyph unicode="&#xfa;" horiz-adv-x="630" d="M253 -10Q196 -10 154 15T90 88T67 202V529H209V228Q209 172 235 141T309 109Q333 109 352 116T386 138T408 171T416 213V529H558V0H423L419 109L444 121Q433 84 405 54T337 7T253 -10ZM241 595L197 661L364 797L435
699L241 595Z" />
<glyph unicode="&#xfb;" horiz-adv-x="630" d="M253 -10Q196 -10 154 15T90 88T67 202V529H209V228Q209 172 235 141T309 109Q333 109 352 116T386 138T408 171T416 213V529H558V0H423L419 109L444 121Q433 84 405 54T337 7T253 -10ZM187 603L135 647L270 771H362L497
647L445 603L301 684H331L187 603Z" />
<glyph unicode="&#xfc;" horiz-adv-x="630" d="M253 -10Q196 -10 154 15T90 88T67 202V529H209V228Q209 172 235 141T309 109Q333 109 352 116T386 138T408 171T416 213V529H558V0H423L419 109L444 121Q433 84 405 54T337 7T253 -10ZM429 635Q390 635 369 656T347
714Q347 749 369 771T429 793Q467 793 488 772T510 714Q510 679 488 657T429 635ZM201 635Q163 635 142 656T121 714Q121 749 142 771T202 793Q241 793 262 772T283 714Q283 679 261 657T201 635Z" />
<glyph unicode="&#xfd;" horiz-adv-x="608" d="M146 -230L262 41L264 -42L5 529H166L296 222Q303 206 311 183T323 139L299 129Q306 146 313 168T329 215L440 529H603L381 0L290 -230H146ZM229 595L185 661L352 797L423 699L229 595Z" />
<glyph unicode="&#xfe;" horiz-adv-x="648" d="M71 -220V740H214V410L187 420Q193 451 220 478T289 522T375 539Q444 539 497 504T581 407T612 264Q612 186 582 124T497 27T374 -9Q329 -9 288 9T217 55T181 116L214 130V-220H71ZM343 113Q382 113 411 132T458
185T475 264Q475 309 459 343T412 397T343 416Q303 416 273 397T226 344T209 264Q209 220 226 186T273 132T343 113Z" />
<glyph unicode="&#xff;" horiz-adv-x="608" d="M146 -230L262 41L264 -42L5 529H166L296 222Q303 206 311 183T323 139L299 129Q306 146 313 168T329 215L440 529H603L381 0L290 -230H146ZM418 635Q379 635 358 656T336 714Q336 749 358 771T418 793Q456 793 477
772T499 714Q499 679 477 657T418 635ZM190 635Q152 635 131 656T110 714Q110 749 131 771T191 793Q230 793 251 772T272 714Q272 679 250 657T190 635Z" />
<glyph unicode="&#x2013;" horiz-adv-x="566" d="M55 225V350H511V225H55Z" />
<glyph unicode="&#x2014;" horiz-adv-x="910" d="M55 225V350H854V225H55Z" />
<glyph unicode="&#x2018;" horiz-adv-x="264" d="M144 447Q115 447 91 462T53 505T39 570Q39 599 51 627T84 681T135 726T198 755L241 701Q200 683 175 658T149 615Q149 603 158 593T178 573Q202 556 210 542T219 510Q219 481 198 464T144 447Z" />
<glyph unicode="&#x2019;" horiz-adv-x="264" d="M67 444L23 497Q64 514 89 539T115 583Q115 594 107 604T85 624Q62 642 54 656T45 688Q45 717 65 734T119 751Q149 751 172 736T210 693T224 629Q224 599 212 570T179 516T130 472T67 444Z" />
<glyph unicode="&#x201a;" horiz-adv-x="281" d="M86 -194L42 -140Q81 -121 104 -94T128 -47Q128 -37 123 -28T102 -3Q80 15 72 30T64 64Q64 93 85 109T139 126Q167 126 189 111T225 68T238 4Q238 -28 227 -58T195 -116T147 -163T86 -194Z" />
<glyph unicode="&#x201c;" horiz-adv-x="488" d="M144 698Q115 698 91 713T53 756T39 821Q39 850 51 878T84 932T135 977T198 1006L241 952Q200 934 175 909T149 866Q149 854 158 844T178 824Q202 807 210 793T219 761Q219 732 198 715T144 698ZM368 442Q339 442
315 457T277 500T263 565Q263 594 275 622T308 676T359 721T422 750L465 696Q424 678 399 653T373 610Q373 598 382 588T402 568Q426 551 434 537T443 505Q443 476 422 459T368 442Z" />
<glyph unicode="&#x201d;" horiz-adv-x="486" d="M67 444L23 497Q64 514 89 539T115 583Q115 594 107 604T85 624Q62 642 54 656T45 688Q45 717 65 734T119 751Q149 751 172 736T210 693T224 629Q224 599 212 570T179 516T130 472T67 444ZM290 444L246 497Q287
514 312 539T338 583Q338 594 330 604T308 624Q285 642 277 656T268 688Q268 717 288 734T342 751Q372 751 395 736T433 693T447 629Q447 599 435 570T402 516T353 472T290 444Z" />
<glyph unicode="&#x201e;" horiz-adv-x="509" d="M86 -194L42 -140Q81 -121 104 -94T128 -47Q128 -37 123 -28T102 -3Q80 15 72 30T64 64Q64 93 85 109T139 126Q167 126 189 111T225 68T238 4Q238 -28 227 -58T195 -116T147 -163T86 -194ZM314 -194L270 -140Q309
-121 332 -94T356 -47Q356 -37 351 -28T330 -3Q308 15 300 30T292 64Q292 93 313 109T367 126Q395 126 417 111T453 68T466 4Q466 -28 455 -58T423 -116T375 -163T314 -194Z" />
<glyph unicode="&#x2022;" horiz-adv-x="346" d="M173 215Q135 215 104 233T55 282T36 351Q36 389 54 420T103 470T173 489Q212 489 243 471T292 421T311 351Q311 313 293 282T243 233T173 215Z" />
<glyph unicode="&#x2039;" horiz-adv-x="300" d="M180 35L10 254V262L179 485L261 427L142 246L141 273L262 92L180 35Z" />
<glyph unicode="&#x203a;" horiz-adv-x="301" d="M121 36L38 94L159 275L158 248L39 429L120 486L290 267V259L121 36Z" />
</font>
</defs>
</svg>
