<?xml version="1.0" standalone="no"?>
<!DOCTYPE svg PUBLIC "-//W3C//DTD SVG 1.1//EN" "http://www.w3.org/Graphics/SVG/1.1/DTD/svg11.dtd">
<svg xmlns="http://www.w3.org/2000/svg">
<defs >
<font id="ReadexPro" horiz-adv-x="596" ><font-face
    font-family="Readex Pro Medium"
    units-per-em="1000"
    panose-1="0 0 0 0 0 0 0 0 0 0"
    ascent="1000"
    descent="-250"
    alphabetic="0" />
<glyph unicode=" " horiz-adv-x="293" />
<glyph unicode="!" horiz-adv-x="260" d="M92 246Q85 308 79 375T69 508T65 633V704H193V633Q193 571 190 504T180 370T166 246H92ZM127 -11Q91 -11 72 10T52 69Q52 104 72 126T127 149Q162 149 182 129T202 69Q202 34 181 12T127 -11Z" />
<glyph unicode="&quot;" horiz-adv-x="434" d="M254 440L277 700H409L327 440H254ZM39 440L61 700H194L112 440H39Z" />
<glyph unicode="#" horiz-adv-x="696" d="M367 0L487 700H594L474 0H367ZM36 165V264H623V165H36ZM102 0L222 700H330L210 0H102ZM74 445V544H660V445H74Z" />
<glyph unicode="$" horiz-adv-x="628" d="M316 -10Q226 -10 159 23T43 121L120 221Q171 155 218 129T326 103Q361 103 388 113T432 141T448 185Q448 202 442 216T423 242T391 264T348 281T295 294Q221 309 173 337T100 409T76 510Q76 569 109 614T199 686T324
712Q407 712 469 683T573 594L498 504Q464 551 420 575T324 599Q288 599 262 589T220 560T205 515Q205 496 213 480T239 452T281 431T341 415Q396 403 440 385T514 342T561 284T577 211Q577 143 545 93T454 17T316 -10ZM256 -91L259 367L351 334L355 -91H256ZM387
333L295 366L291 784H391L387 333Z" />
<glyph unicode="%" horiz-adv-x="881" d="M142 0L605 700H724L256 0H142ZM201 329Q154 329 118 354T61 422T40 520Q40 576 60 619T117 687T201 712Q249 712 285 688T341 620T361 520Q361 466 340 423T283 354T201 329ZM201 414Q221 414 235 427T256 463T264 520Q264
553 257 577T235 614T201 627Q181 627 167 614T144 577T136 520Q136 471 153 443T201 414ZM673 -9Q626 -9 590 16T532 84T511 182Q511 237 531 281T588 349T673 374Q720 374 756 350T812 281T832 182Q832 128 812 85T755 16T673 -9ZM673 75Q692 75 706 88T728 125T736
182Q736 230 719 259T673 289Q653 289 638 276T616 239T608 182Q608 133 625 104T673 75Z" />
<glyph unicode="&amp;" horiz-adv-x="752" d="M577 0L493 90L462 120L298 300Q268 332 244 363T203 424T177 481T168 531Q168 583 195 624T270 688T380 712Q427 712 467 696T538 650T581 580L486 522Q468 566 443 585T382 604Q354 604 335 596T306 571T296 530Q296
508 310 482T344 427T386 375T424 333L542 203L584 161L733 0H577ZM313 -10Q239 -10 180 20T85 102T50 214Q50 291 93 349T221 438L297 354Q235 341 205 310T175 228Q175 189 193 160T247 114T332 97Q375 97 411 114T477 162T524 237T551 335H662Q654 273 633 220T581
125T508 52T418 6T313 -10Z" />
<glyph unicode="&apos;" horiz-adv-x="220" d="M39 440L61 700H195L113 440H39Z" />
<glyph unicode="(" horiz-adv-x="374" d="M290 -186Q168 -110 104 4T40 258Q40 397 104 511T291 702L358 632Q259 563 208 467T157 258Q157 147 208 50T358 -116L290 -186Z" />
<glyph unicode=")" horiz-adv-x="374" d="M83 -186L16 -116Q115 -47 166 50T217 258Q217 370 166 467T16 632L84 702Q206 626 270 512T334 258Q334 119 270 5T83 -186Z" />
<glyph unicode="*" horiz-adv-x="404" d="M161 368L171 490L180 489L70 414L27 488L147 542L145 536L26 592L69 666L181 588L171 589L160 711H249L238 579L227 587L336 664L378 590L258 533V543L377 489L335 416L226 491L239 490L249 368H161Z" />
<glyph unicode="+" horiz-adv-x="593" d="M236 41L237 526H355V41H236ZM46 229V333H547V229H46Z" />
<glyph unicode="," horiz-adv-x="274" d="M87 -186L46 -137Q83 -117 106 -91T129 -45Q129 -35 124 -25T102 1Q81 19 75 33T68 64Q68 91 87 106T135 122Q162 122 183 107T217 66T229 4Q229 -27 219 -56T189 -111T144 -155T87 -186Z" />
<glyph unicode="-" horiz-adv-x="411" d="M53 228V345H359V228H53Z" />
<glyph unicode="." horiz-adv-x="237" d="M119 -11Q83 -11 64 10T44 69Q44 104 64 126T119 149Q154 149 174 129T194 69Q194 34 173 12T119 -11Z" />
<glyph unicode="/" horiz-adv-x="569" d="M14 -135L428 700H547L134 -135H14Z" />
<glyph unicode="0" horiz-adv-x="629" d="M314 -10Q229 -10 169 33T77 157T44 350Q44 462 76 542T169 666T314 710Q399 710 459 667T552 543T585 350Q585 238 553 158T460 34T314 -10ZM314 104Q384 104 422 168T460 350Q460 469 422 533T314 598Q244 598 206 534T167
350Q167 232 205 168T314 104Z" />
<glyph unicode="1" horiz-adv-x="521" d="M215 49V616L253 570L111 498L82 611L273 710H344V49H215ZM99 0V120H464V0H99Z" />
<glyph unicode="2" horiz-adv-x="548" d="M82 0L49 83L259 317Q276 336 295 359T331 408T360 457T371 503Q371 531 360 551T327 582T275 593Q249 593 223 578T176 534T140 466L43 524Q61 582 97 624T182 689T290 712Q350 712 397 687T471 618T499 515Q499 487
491 457T466 394T422 325T356 246L199 75L178 120H524V0H82Z" />
<glyph unicode="3" horiz-adv-x="549" d="M263 -10Q185 -10 128 24T21 141L118 203Q142 167 166 144T216 111T270 100Q303 100 330 116T374 160T391 224Q391 261 378 286T339 324T278 338Q262 338 244 335T205 325T161 309L129 394L329 615L358 585L63 587V702H474L498
655L268 403L238 436Q246 440 264 443T296 447Q341 447 380 430T449 384T496 315T513 229Q513 160 480 106T390 21T263 -10Z" />
<glyph unicode="4" horiz-adv-x="634" d="M350 0V564L397 559L161 270L150 288H594V175H80L26 279L373 702H475V0H350Z" />
<glyph unicode="5" horiz-adv-x="577" d="M265 -7Q193 -7 134 24T37 115L107 194Q152 144 187 126T263 108Q301 108 331 124T379 169T397 232Q397 269 380 297T334 343T269 360Q249 360 231 357T190 345T130 317L68 401L109 702H495V587H182L210 618L178 397L141
424Q154 436 179 446T234 464T293 471Q358 471 409 441T490 359T520 238Q520 169 487 114T395 26T265 -7Z" />
<glyph unicode="6" horiz-adv-x="564" d="M286 0Q234 0 189 19T110 71T57 150T38 249Q38 289 51 336T91 438T154 555L247 712H370L374 702L256 507Q227 459 205 416T167 334T141 260L114 353Q136 396 167 426T237 473T317 489Q375 489 424 458T502 374T532 260Q532
186 501 127T414 34T286 0ZM287 114Q323 114 351 131T396 178T413 249Q413 283 396 313T351 361T289 379Q251 379 221 362T175 315T158 249Q158 211 174 180T220 132T287 114Z" />
<glyph unicode="7" horiz-adv-x="546" d="M103 0L390 633L413 586H56V702H497L511 629L238 0H103Z" />
<glyph unicode="8" horiz-adv-x="585" d="M292 -3Q225 -3 170 24T82 98T49 202Q49 235 58 264T85 316T129 358T191 391L183 363Q147 377 122 399T82 450T68 513Q68 566 98 609T179 678T292 704Q355 704 405 678T486 609T517 513Q517 479 504 451T465 401T400 363L395
387Q437 372 469 345T519 281T537 202Q537 144 504 98T416 24T292 -3ZM292 109Q326 109 353 122T395 157T411 208Q411 238 396 261T353 299T292 313Q259 313 232 299T190 262T174 208Q174 180 189 158T232 122T292 109ZM292 422Q322 422 345 433T381 464T395 508Q395
533 382 552T345 584T292 596Q263 596 240 584T203 553T189 508Q189 483 202 464T239 434T292 422Z" />
<glyph unicode="9" horiz-adv-x="559" d="M221 0L217 10L429 453L440 376Q421 335 389 304T318 256T241 239Q184 239 136 269T59 350T30 461Q30 532 62 589T152 680T280 714Q331 714 376 696T454 644T507 569T527 477Q527 449 522 419T505 352T475 273T429 174L345
0H221ZM270 351Q306 351 334 367T379 411T395 473Q395 509 380 538T336 583T271 600Q237 600 211 584T170 540T155 473Q155 441 170 414T212 369T270 351Z" />
<glyph unicode=":" horiz-adv-x="237" d="M119 -10Q83 -10 64 11T44 70Q44 105 64 127T119 150Q154 150 174 130T194 70Q194 35 173 13T119 -10ZM119 377Q83 377 64 398T44 457Q44 492 64 514T119 537Q154 537 174 517T194 457Q194 422 173 400T119 377Z" />
<glyph unicode=";" horiz-adv-x="272" d="M341 -186L300 -137Q337 -117 360 -91T383 -45Q383 -35 378 -25T356 1Q335 19 329 33T322 64Q322 91 341 106T389 122Q416 122 437 107T471 66T483 4Q483 -27 473 -56T443 -111T398 -155T341 -186ZM137 377Q101 377 82
398T62 457Q62 492 82 514T137 537Q172 537 192 517T212 457Q212 422 191 400T137 377Z" />
<glyph unicode="&lt;" horiz-adv-x="525" d="M417 -2L47 210V297L417 509L471 416L118 219V288L471 90L417 -2Z" />
<glyph unicode="=" horiz-adv-x="585" d="M56 329V432H529V329H56ZM56 131V233H529V131H56Z" />
<glyph unicode="&gt;" horiz-adv-x="525" d="M111 -2L57 90L410 288V219L57 416L111 509L481 297V210L111 -2Z" />
<glyph unicode="?" horiz-adv-x="520" d="M194 221L166 358Q211 370 246 385T305 418T341 458T353 508Q353 535 342 554T309 585T257 597Q226 597 199 586T147 553T97 501L24 578Q54 619 91 648T172 694T266 711Q333 711 380 686T454 616T480 516Q480 468 456
426T389 350T289 293L274 221H194ZM158 69Q158 104 179 126T233 149Q269 149 288 129T308 69Q308 34 288 12T233 -11Q198 -11 178 10T158 69Z" />
<glyph unicode="@" horiz-adv-x="965" d="M414 -162Q327 -162 258 -136T140 -61T66 56T40 206Q40 323 81 416T196 575T367 675T576 710Q656 710 720 688T830 623T900 524T925 396Q925 328 906 266T851 156T770 81T669 53Q633 53 605 65T562 101T546 155Q546 170
549 187T553 222L571 202Q556 154 531 121T472 71T398 53Q354 53 320 76T266 141T246 237Q246 284 263 333T313 422T390 488T486 514Q517 514 541 499T581 456T600 391L573 342L600 504H716L663 193Q659 167 672 154T704 141Q733 141 758 161T801 216T830 296T841
391Q841 466 809 519T717 601T571 630Q469 630 387 602T246 519T156 386T124 209Q124 140 143 87T200 -4T292 -61T417 -81Q464 -81 498 -75T563 -55T632 -21L669 -89Q610 -119 568 -134T490 -156T414 -162ZM427 150Q458 150 487 170T537 221T563 288Q566 305 568
318T570 342Q570 366 561 383T536 409T496 419Q460 419 430 392T383 323T365 235Q365 196 381 173T427 150Z" />
<glyph unicode="A" horiz-adv-x="699" d="M17 0L290 700H411L682 0H548L397 400Q393 411 385 437T366 494T348 551T336 590L361 591Q355 571 347 546T330 493T312 441T296 396L146 0H17ZM141 161L185 273H504L553 161H141Z" />
<glyph unicode="B" horiz-adv-x="688" d="M94 0V700H392Q461 700 508 680T580 621T604 525Q604 467 574 427T487 372V392Q533 382 568 357T622 294T641 208Q641 157 625 118T577 53T502 14T403 0H94ZM220 117H396Q451 117 481 141T512 212Q512 240 497 260T455
290T391 301H220V117ZM220 413H381Q409 413 431 424T465 454T477 498Q477 539 450 561T370 583H220V413Z" />
<glyph unicode="C" horiz-adv-x="684" d="M390 -10Q315 -10 252 16T143 90T72 205T46 351Q46 427 73 492T148 606T260 682T398 709Q449 709 497 694T585 653T652 590L569 501Q530 541 488 562T398 583Q352 583 312 566T242 518T195 445T178 350Q178 297 194 254T241
179T314 132T409 116Q441 116 472 124T530 150T578 189L642 86Q618 59 578 37T489 3T390 -10Z" />
<glyph unicode="D" horiz-adv-x="756" d="M94 0V700H375Q451 700 512 675T618 603T686 492T710 350Q710 272 686 208T619 97T513 25T375 0H94ZM223 101L214 120H370Q419 120 458 136T523 181T564 254T579 350Q579 403 565 445T523 518T458 564T370 580H211L223 597V101Z" />
<glyph unicode="E" horiz-adv-x="624" d="M94 0V700H551V582H222V118H555V0H94ZM154 300V416H500V300H154Z" />
<glyph unicode="F" horiz-adv-x="607" d="M94 0V700H223V0H94ZM153 288V405H515V288H153ZM153 580V700H558V580H153Z" />
<glyph unicode="G" horiz-adv-x="771" d="M411 -10Q333 -10 267 17T150 94T73 208T46 351Q46 427 74 492T151 606T268 682T414 709Q468 709 519 694T611 652T680 591L598 506Q556 546 510 567T413 588Q363 588 321 570T246 520T196 445T178 351Q178 301 196 258T248
181T325 130T418 111Q455 111 487 121T544 151T582 197T596 252V274L614 254H407V370H724Q726 359 727 346T728 320T729 299Q729 230 705 174T637 76T537 13T411 -10Z" />
<glyph unicode="H" horiz-adv-x="767" d="M544 0V700H673V0H544ZM94 0V700H223V0H94ZM148 289V409H606V289H148Z" />
<glyph unicode="I" horiz-adv-x="504" d="M73 0V115H187V585H73V700H431V585H316V115H431V0H73Z" />
<glyph unicode="J" horiz-adv-x="650" d="M258 -10Q223 -10 191 -1T132 24T84 64T47 117L125 198Q151 163 171 144T210 118T252 111Q284 111 308 126T346 167T359 226V584H231V700H595V584H487V213Q487 164 470 124T423 53T350 7T258 -10Z" />
<glyph unicode="K" horiz-adv-x="735" d="M197 210L178 339L538 700H700L197 210ZM94 0V700H223V0H94ZM554 0L289 353L380 432L710 0H554Z" />
<glyph unicode="L" horiz-adv-x="603" d="M94 0V700H223V120H546V0H94Z" />
<glyph unicode="M" horiz-adv-x="869" d="M94 0V700H216L471 286L401 287L658 700H774V0H647V262Q647 353 651 425T667 569L683 527L466 191H399L188 523L202 569Q213 502 217 431T222 262V0H94Z" />
<glyph unicode="N" horiz-adv-x="798" d="M94 0V700H210L618 152L596 147Q589 193 585 245T578 358T576 491V700H704V0H586L178 539L202 546Q209 475 213 430T219 355T221 307T222 271V0H94Z" />
<glyph unicode="O" horiz-adv-x="791" d="M396 -10Q320 -10 257 17T146 92T72 207T46 351Q46 429 72 495T145 609T256 685T396 712Q471 712 535 685T646 609T719 494T745 351Q745 273 719 208T646 93T535 17T396 -10ZM396 114Q444 114 483 131T552 181T597 256T614
351Q614 402 598 445T552 521T484 570T396 588Q348 588 309 571T240 521T194 446T178 351Q178 282 206 229T283 145T396 114Z" />
<glyph unicode="P" horiz-adv-x="643" d="M94 0V700H385Q445 700 493 671T570 592T599 480Q599 418 571 368T494 287T385 257H223V0H94ZM223 376H376Q402 376 422 390T455 427T468 479Q468 508 456 531T423 567T376 580H223V376Z" />
<glyph unicode="Q" horiz-adv-x="791" d="M613 -110L347 242L449 310L711 -39L613 -110ZM396 -10Q320 -10 257 17T146 92T72 207T46 351Q46 429 72 495T145 609T256 685T396 712Q471 712 535 685T646 609T719 494T745 351Q745 273 719 208T646 93T535 17T396 -10ZM396
114Q444 114 483 131T552 181T597 256T614 351Q614 402 598 445T552 521T484 570T396 588Q348 588 309 571T240 521T194 446T178 351Q178 282 206 229T283 145T396 114Z" />
<glyph unicode="R" horiz-adv-x="698" d="M94 0V700H399Q461 700 513 671T595 591T626 477Q626 417 596 367T514 287T399 257H221V0H94ZM501 0L323 316L456 341L654 -1L501 0ZM221 371H400Q428 371 450 384T484 421T496 474Q496 507 481 531T439 569T377 583H221V371Z" />
<glyph unicode="S" horiz-adv-x="628" d="M316 -10Q224 -10 157 25T41 127L125 223Q174 154 220 129T326 103Q360 103 388 113T432 141T448 185Q448 202 442 216T423 242T392 264T349 281T295 294Q239 305 199 323T131 369T90 431T76 510Q76 569 109 614T199 686T324
712Q412 712 473 680T570 589L484 505Q454 551 413 575T324 599Q288 599 262 589T220 560T205 515Q205 496 213 480T239 452T282 431T342 415Q397 403 440 385T514 342T561 284T577 211Q577 143 545 93T454 17T316 -10Z" />
<glyph unicode="T" horiz-adv-x="602" d="M234 0V580H34V700H568V580H363V0H234Z" />
<glyph unicode="U" horiz-adv-x="748" d="M374 -6Q291 -6 226 29T124 127T86 269V701H216V278Q216 231 237 194T295 136T374 114Q420 114 457 135T516 194T538 278V701H662V269Q662 190 625 128T522 30T374 -6Z" />
<glyph unicode="V" horiz-adv-x="715" d="M298 0L18 700H159L315 299Q327 268 336 244T352 199T365 159T377 119H350Q357 146 365 172T383 229T409 299L555 700H697L416 0H298Z" />
<glyph unicode="W" horiz-adv-x="997" d="M237 0L18 700H152L278 285Q286 260 292 229T303 170T310 126H283Q296 174 303 203T315 251T326 286L445 589H555L671 286Q682 259 689 234T702 184T713 134L689 128Q693 152 695 167T699 194T703 217T709 245T721 288L844
700H979L760 0H666L487 426L500 423L330 0H237Z" />
<glyph unicode="X" horiz-adv-x="692" d="M516 0L299 314L21 700H181L393 390L676 0H516ZM16 0L283 381L373 302L166 0H16ZM409 325L320 401L516 700H666L409 325Z" />
<glyph unicode="Y" horiz-adv-x="670" d="M280 0V349L287 300L4 700H156L371 391L326 394L520 700H666L395 289L410 357V0H280Z" />
<glyph unicode="Z" horiz-adv-x="667" d="M60 0V91L451 612L480 579H86V700H600V610L212 88L181 119H611V0H60Z" />
<glyph unicode="[" horiz-adv-x="409" d="M80 -190V700H350V602H187L193 610V-104L183 -92H350V-190H80Z" />
<glyph unicode="\" horiz-adv-x="566" d="M437 -107L39 700H158L559 -107H437Z" />
<glyph unicode="]" horiz-adv-x="409" d="M59 -190V-92H222L216 -100V614L226 602H59V700H329V-190H59Z" />
<glyph unicode="^" horiz-adv-x="583" d="M23 366L237 729H347L561 366H430L273 636L313 639L152 366H23Z" />
<glyph unicode="_" horiz-adv-x="689" d="M49 -171V-75H640V-171H49Z" />
<glyph unicode="`" horiz-adv-x="500" d="M323 599L139 698L207 788L361 657L323 599Z" />
<glyph unicode="a" horiz-adv-x="545" d="M373 0V337Q373 380 345 404T271 429Q229 429 195 413T132 360L56 436Q103 486 160 512T283 538Q346 538 391 518T462 459T487 362V0H373ZM223 -10Q172 -10 132 10T69 65T45 149Q45 191 60 222T104 275T178 306T281 317H432L423
229H274Q247 229 226 224T190 209T168 186T161 153Q161 133 171 119T198 96T238 88Q271 88 300 99T353 130T389 175L414 107Q393 72 363 46T297 5T223 -10Z" />
<glyph unicode="b" horiz-adv-x="639" d="M362 -10Q327 -10 294 0T234 29T188 69T164 115L193 128L190 3H72V740H194V406L173 415Q178 439 195 460T238 499T295 527T359 538Q429 538 483 503T569 406T601 264Q601 185 570 123T485 26T362 -10ZM337 98Q379 98 412
119T464 178T483 264Q483 313 465 350T413 409T337 430Q293 430 260 409T208 351T189 264Q189 216 208 179T260 120T337 98Z" />
<glyph unicode="c" horiz-adv-x="538" d="M298 -10Q224 -10 165 26T72 124T38 264Q38 342 72 404T165 502T298 538Q368 538 426 511T516 436L449 354Q434 375 411 392T362 419T310 429Q265 429 231 408T176 349T156 264Q156 217 176 180T232 121T310 99Q337 99
361 107T407 132T449 172L516 90Q483 46 423 18T298 -10Z" />
<glyph unicode="d" horiz-adv-x="641" d="M285 -10Q214 -10 159 25T71 122T38 264Q38 343 70 405T157 502T283 538Q321 538 356 526T420 494T465 448T483 396L450 392V740H573V0H454L451 123L475 121Q474 97 458 74T416 32T355 2T285 -10ZM308 94Q351 94 384 115T435
175T454 264Q454 314 436 352T384 412T308 434Q264 434 232 412T180 352T161 264Q161 214 180 176T231 116T308 94Z" />
<glyph unicode="e" horiz-adv-x="586" d="M319 -10Q236 -10 173 24T74 119T38 259Q38 321 58 372T114 460T199 518T307 539Q360 539 404 519T482 465T532 383T549 279L548 235H122L98 320H445L430 303V326Q427 356 410 379T367 416T308 430Q259 430 225 412T174
357T156 268Q156 217 177 179T239 120T332 99Q369 99 400 111T468 154L528 70Q501 45 467 28T394 0T319 -10Z" />
<glyph unicode="f" horiz-adv-x="394" d="M121 0V575Q121 622 142 659T200 718T285 740Q319 740 348 728T397 696L359 605Q346 615 332 621T304 628Q284 628 271 622T251 602T244 570V0H182Q165 0 150 0T121 0ZM39 408V516H363V408H39Z" />
<glyph unicode="g" horiz-adv-x="656" d="M309 -230Q251 -230 193 -212T98 -166L142 -74Q172 -97 215 -110T303 -124Q356 -124 391 -107T445 -57T463 26V123L480 116Q475 85 448 57T379 12T295 -5Q221 -5 163 29T72 125T38 265Q38 344 71 405T162 502T292 538Q321
538 349 531T401 511T443 482T474 448T489 414L464 405L466 527H585V36Q585 -28 567 -77T512 -160T425 -212T309 -230ZM313 100Q359 100 394 121T448 179T467 264Q467 313 448 350T394 409T313 430Q269 430 235 409T181 350T161 264Q161 216 180 179T234 121T313
100Z" />
<glyph unicode="h" horiz-adv-x="609" d="M72 0V740H193V419L170 407Q181 442 209 471T278 519T361 538Q421 538 461 514T522 442T542 322V0H420V313Q420 354 409 380T375 419T319 430Q292 430 269 422T230 398T204 362T194 317V0H133Q116 0 101 0T72 0Z" />
<glyph unicode="i" horiz-adv-x="292" d="M86 0V527H208V0H86ZM146 639Q109 639 89 657T68 710Q68 742 89 761T146 781Q183 781 203 763T224 710Q224 679 203 659T146 639Z" />
<glyph unicode="j" horiz-adv-x="282" d="M14 -201L-33 -107Q29 -107 57 -78T85 14V527H207V-15Q207 -73 184 -115T117 -179T14 -201ZM149 639Q111 639 91 657T71 710Q71 742 91 761T149 781Q186 781 206 763T227 710Q227 679 206 659T149 639Z" />
<glyph unicode="k" horiz-adv-x="588" d="M186 161L163 277L413 527H576L186 161ZM72 0V740H194V0H72ZM427 0L234 234L320 308L579 0H427Z" />
<glyph unicode="l" horiz-adv-x="269" d="M73 0V740H195V0H73Z" />
<glyph unicode="m" horiz-adv-x="935" d="M70 0V527H190L192 420L172 412Q181 438 199 460T242 500T295 526T353 536Q396 536 429 522T484 479T519 405L500 409L507 425Q519 449 539 469T584 504T636 528T690 536Q750 536 790 512T850 439T870 318V0H747V310Q747
370 724 399T651 428Q625 428 603 420T565 396T539 360T530 314V0H407V311Q407 368 383 398T313 428Q287 428 266 420T228 396T202 360T193 316V0H70Z" />
<glyph unicode="n" horiz-adv-x="609" d="M72 0V527H191L193 419L170 407Q181 442 209 471T278 519T361 538Q421 538 461 514T522 442T542 322V0H420V313Q420 354 409 380T375 419T319 430Q292 430 269 422T230 398T204 362T194 317V0H133Q116 0 101 0T72 0Z" />
<glyph unicode="o" horiz-adv-x="623" d="M312 -10Q233 -10 171 25T74 123T38 264Q38 343 73 405T171 502T312 538Q390 538 452 503T549 405T585 264Q585 185 550 123T452 26T312 -10ZM312 99Q355 99 389 120T442 179T461 264Q462 312 443 349T389 408T312 429Q269
429 235 408T181 349T162 264Q162 217 181 180T234 121T312 99Z" />
<glyph unicode="p" horiz-adv-x="640" d="M72 -220V527H192L194 408L173 417Q179 448 207 475T275 519T360 536Q430 536 484 501T570 405T602 264Q602 185 571 124T486 27T362 -9Q316 -9 274 9T202 56T165 116L195 131V-220H72ZM338 100Q380 100 413 121T465 179T484
264Q484 312 466 348T414 406T338 428Q294 428 261 407T209 349T190 264Q190 216 209 179T261 121T338 100Z" />
<glyph unicode="q" horiz-adv-x="639" d="M445 -220V126L470 123Q469 99 453 76T410 33T351 2T283 -10Q213 -10 158 25T70 123T38 264Q38 343 69 405T156 502T280 538Q319 538 354 526T417 494T461 449T478 398L446 395L448 528H568V-220H445ZM303 99Q346 99 379
120T430 178T449 264Q449 313 431 350T379 409T303 430Q260 430 227 409T175 350T156 264Q156 216 175 179T227 120T303 99Z" />
<glyph unicode="r" horiz-adv-x="421" d="M72 0V527H192L194 359L178 397Q189 437 216 469T278 519T352 538Q369 538 384 535T410 528L378 394Q366 400 351 403T319 407Q293 407 271 398T232 371T205 332T195 282V0H72Z" />
<glyph unicode="s" horiz-adv-x="484" d="M248 -10Q179 -10 124 13T33 81L112 149Q142 116 179 101T257 85Q274 85 287 89T311 101T326 120T332 144Q332 168 314 182Q304 188 283 196T228 213Q174 227 138 245T81 287Q64 307 56 330T48 383Q48 428 74 463T145
518T243 538Q283 538 320 528T390 500T445 455L377 380Q359 398 337 412T291 435T248 443Q229 443 214 440T189 429T174 412T168 388Q169 375 174 365T190 347Q200 340 222 331T279 314Q328 301 361 285T413 248Q432 230 440 206T448 152Q448 105 422 69T350 11T248
-10Z" />
<glyph unicode="t" horiz-adv-x="389" d="M130 0V661H252V0H130ZM26 413V527H367V413H26Z" />
<glyph unicode="u" horiz-adv-x="618" d="M255 -10Q198 -10 157 16T93 89T70 202V527H192V228Q192 166 221 130T304 94Q330 94 351 102T389 126T414 164T423 211V527H545V0H426L424 110L446 122Q434 85 406 55T338 8T255 -10Z" />
<glyph unicode="v" horiz-adv-x="584" d="M241 0L19 527H152L303 134L277 126L436 527H566L332 0H241Z" />
<glyph unicode="w" horiz-adv-x="811" d="M196 0L19 527L145 528L263 151L240 154L369 447H442L574 153L548 151L667 527H793L614 0H528L392 317L411 315L283 0H196Z" />
<glyph unicode="x" horiz-adv-x="577" d="M413 0L262 204L235 241L18 527H169L317 327L346 287L561 0H413ZM17 0L226 279L295 196L161 0H17ZM347 246L280 329L401 527H546L347 246Z" />
<glyph unicode="y" horiz-adv-x="594" d="M153 -230L264 28L265 -55L5 527H146L292 180Q299 167 306 146T318 104L293 95Q300 114 307 136T323 180L447 527H589L370 0L281 -230H153Z" />
<glyph unicode="z" horiz-adv-x="506" d="M50 0V89L324 449V424H50V527H452V439L186 85L182 103H459V0H50Z" />
<glyph unicode="{" horiz-adv-x="416" d="M368 -202Q318 -192 282 -176T223 -137T188 -81T177 -7L178 88Q178 143 154 172T84 203H42V297H86Q131 298 154 327T178 412L177 507Q177 589 222 635T368 702L391 618Q351 605 328 590T296 552T286 489L288 398Q288 340
259 302T171 247L170 254Q229 236 258 198T288 102L286 11Q286 -27 295 -50T328 -87T391 -116L368 -202Z" />
<glyph unicode="|" horiz-adv-x="259" d="M72 -193V740H187V-193H72Z" />
<glyph unicode="}" horiz-adv-x="416" d="M48 -202L25 -118Q65 -104 88 -90T120 -52T130 11L128 102Q128 160 157 198T245 253L246 246Q187 264 158 302T128 398L130 489Q130 527 121 550T89 588T25 616L48 702Q98 692 134 676T193 637T228 581T239 507L238 412Q238
357 262 328T331 297H374V203H329Q284 202 261 173T238 88L239 -7Q239 -89 194 -134T48 -202Z" />
<glyph unicode="~" horiz-adv-x="526" d="M365 217Q349 217 328 222T286 236T250 249Q235 256 218 262T186 272T162 276Q144 276 135 261T125 217H37Q37 294 70 336T169 378Q186 378 206 372T247 358T282 344Q296 339 312 333T342 323T365 318Q382 318 392 332T400
370L488 367Q488 318 474 285T433 235T365 217Z" />
<glyph unicode="&#xa0;" horiz-adv-x="293" />
<glyph unicode="&#xa1;" horiz-adv-x="260" d="M161 284Q169 222 175 155T185 23T189 -103V-174H60V-103Q60 -41 63 26T73 160T88 284H161ZM127 541Q162 541 182 521T202 461Q202 426 181 404T127 381Q91 381 72 402T52 461Q52 496 72 518T127 541Z" />
<glyph unicode="&#xa2;" horiz-adv-x="544" d="M304 78Q229 78 170 114T76 212T42 352Q42 430 76 492T169 590T304 626Q374 626 432 599T522 524L454 442Q439 463 416 480T367 507T315 517Q270 517 235 496T180 437T160 352Q160 305 181 268T237 209T316 187Q342
187 366 195T413 220T454 260L521 178Q489 133 429 106T304 78ZM247 0V108L260 146V560L247 606V702H352V605L340 568V142L352 107V0H247Z" />
<glyph unicode="&#xa3;" horiz-adv-x="619" d="M194 53L118 74Q142 87 158 123T175 199Q175 218 172 239T161 288T141 352Q129 389 123 413T115 454T112 487Q112 555 141 605T222 684T346 712Q414 712 464 689T539 625L449 556Q428 579 402 590T344 602Q310 602
284 587T242 544T227 482Q227 451 237 417T257 353Q267 322 276 288T286 226Q286 196 277 168T247 111T194 53ZM432 -21Q406 -21 372 -12T316 4Q303 8 285 13T249 22T215 26Q183 26 147 17T73 -8L27 77Q67 102 116 115T216 129Q246 129 270 124T337 104Q358 97
382 90T430 82Q456 82 484 90T541 117L600 39Q568 10 523 -5T432 -21ZM44 316V405H458V316H44Z" />
<glyph unicode="&#xa4;" horiz-adv-x="553" d="M280 118Q227 118 185 142T117 209T92 303Q92 355 117 397T184 463T280 488Q332 488 374 464T442 397T467 303Q467 251 442 209T375 143T280 118ZM130 75L49 155L140 250L220 169L130 75ZM137 362L43 451L123 531L217
441L137 362ZM280 216Q303 216 321 227T349 258T359 303Q359 329 349 348T321 379T280 391Q257 391 240 380T212 349T202 303Q202 278 212 259T239 228T280 216ZM430 81L335 171L414 252L510 161L430 81ZM418 361L339 441L431 538L511 459L418 361Z" />
<glyph unicode="&#xa5;" horiz-adv-x="670" d="M280 0V349L287 300L4 700H156L371 391L326 394L520 700H666L395 289L410 357V0H280ZM145 100V182L565 180V98L145 100ZM145 235V316L565 315V233L145 235Z" />
<glyph unicode="&#xa6;" horiz-adv-x="267" d="M75 -202V196H192V-202H75ZM75 343V740H192V343H75Z" />
<glyph unicode="&#xa7;" horiz-adv-x="557" d="M331 129L310 197Q360 203 383 222T406 268Q406 289 392 303T343 327L229 362Q213 369 190 381T143 413T105 464T89 539Q89 588 112 627T183 689T299 713Q340 713 375 704T440 675T493 628L427 554Q407 573 386 585T342
604T296 610Q256 610 231 591T206 542Q206 526 215 512T242 486T286 467L376 439Q452 415 488 376T523 280Q520 232 496 199T430 149T331 129ZM273 -137Q231 -137 190 -126T112 -94T48 -46L108 38Q147 3 190 -17T272 -37Q318 -37 343 -20T369 28Q369 45 359 57T330
79T289 97L181 131Q111 154 77 193T42 288Q42 331 63 365T124 421T221 443L240 367Q217 365 201 355T175 331T166 299Q166 277 183 260T241 231L328 205Q370 192 406 171T463 117T485 38Q485 -12 462 -52T392 -114T273 -137Z" />
<glyph unicode="&#xa8;" horiz-adv-x="500" d="M357 636Q321 636 302 655T282 708Q282 740 302 760T357 780Q393 780 412 762T432 708Q432 677 412 657T357 636ZM143 636Q107 636 88 655T68 708Q68 740 88 760T143 780Q179 780 198 762T218 708Q218 677 198 657T143 636Z" />
<glyph unicode="&#xa9;" horiz-adv-x="787" d="M393 -11Q318 -11 253 17T138 94T61 209T33 350Q33 426 61 491T138 605T252 683T393 711Q468 711 533 683T648 606T726 491T754 350Q754 274 726 209T649 95T534 17T393 -11ZM411 142Q351 142 303 169T226 243T197
350Q197 407 225 454T302 529T411 557Q446 557 479 545T542 511L501 426Q474 445 454 453T415 461Q382 461 356 446T316 406T301 350Q301 317 315 292T356 252T415 237Q436 237 458 245T505 272L546 186Q516 164 482 153T411 142ZM393 64Q453 64 505 86T596 147T657
238T680 350Q680 411 658 462T596 553T505 614T393 636Q334 636 282 615T191 554T130 463T108 350Q108 290 130 238T191 147T282 86T393 64Z" />
<glyph unicode="&#xaa;" horiz-adv-x="373" d="M142 391Q103 391 75 412T31 472T16 562Q16 608 33 644T82 700T154 721Q205 721 231 688T257 593L241 648V715H342V401H241V474L257 510Q257 481 242 453T201 408T142 391ZM177 466Q207 466 226 490T245 555Q245
598 227 622T175 646Q151 646 134 622T117 562Q117 532 124 511T144 478T177 466Z" />
<glyph unicode="&#xab;" horiz-adv-x="511" d="M399 42L235 255V261L398 478L471 427L351 251L352 269L471 94L399 42ZM175 42L11 255V261L174 478L247 427L127 251L128 269L247 94L175 42Z" />
<glyph unicode="&#xac;" horiz-adv-x="670" d="M502 113V318L536 297H47V408H623V113H502Z" />
<glyph unicode="&#xad;" horiz-adv-x="413" d="M55 228V345H361V228H55Z" />
<glyph unicode="&#xae;" horiz-adv-x="507" d="M259 251Q193 251 139 282T54 366T22 484Q22 549 54 601T140 685T259 717Q307 717 349 699T424 648T475 574T494 484Q494 419 462 367T377 283T259 251ZM259 315Q306 315 345 337T407 398T430 484Q430 531 407 569T345
631T259 654Q210 654 171 631T108 570T85 484Q85 437 108 399T170 338T259 315ZM292 367L255 463L313 478L361 367H292ZM168 367V606H282Q316 606 337 586T359 533Q359 500 337 479T282 458H216L232 468V367H168ZM232 495L217 502H262Q277 502 287 509T297 527Q297
539 288 545T264 552H215L232 560V495Z" />
<glyph unicode="&#xaf;" horiz-adv-x="424" d="M100 639V723H400V639H100Z" />
<glyph unicode="&#xb0;" horiz-adv-x="532" d="M266 397Q221 397 185 418T127 474T106 553Q106 598 127 633T184 690T266 711Q312 711 348 690T405 634T426 554Q426 511 405 475T348 418T266 397ZM266 474Q287 474 303 485T330 514T340 554Q340 576 330 594T304
622T266 633Q245 633 228 623T202 594T192 553Q192 531 202 513T228 485T266 474Z" />
<glyph unicode="&#xb1;" horiz-adv-x="601" d="M56 293V397H545V293H56ZM56 -3V102H545V-3H56ZM241 156V548H361V156H241Z" />
<glyph unicode="&#xb2;" horiz-adv-x="352" d="M63 418L53 494L153 587Q164 596 177 609T201 638T211 671Q211 686 203 694T178 703Q161 703 141 690T102 650L41 695Q66 737 103 760T186 784Q238 784 270 755T302 681Q302 649 286 622T247 573T203 535L141 479L144
493H307V418H63Z" />
<glyph unicode="&#xb3;" horiz-adv-x="346" d="M169 412Q136 412 106 421T50 446L87 509Q106 498 122 493T157 487Q183 487 199 500T216 535Q216 554 202 565T162 577Q149 577 134 574T106 565L84 624L199 715L214 702H74V777H270L278 705L173 622L162 629Q169
633 178 635T193 638Q243 638 272 610T302 533Q302 498 284 471T236 428T169 412Z" />
<glyph unicode="&#xb4;" horiz-adv-x="500" d="M177 598L139 657L293 787L361 698L177 598Z" />
<glyph unicode="&#xb5;" horiz-adv-x="604" d="M78 -159V527H196V222Q196 180 207 152T240 109T294 94Q320 94 342 104T380 131T406 172T416 222V527H533V0H419L417 109L427 97Q412 61 389 38T334 2T268 -10Q250 -10 233 -4T203 12T185 37L194 63L196 -159H78Z" />
<glyph unicode="&#xb6;" horiz-adv-x="730" d="M246 0V314L278 277H234Q180 277 138 304T71 378T46 485Q46 550 74 598T152 673T271 700H635V0H508V660L535 595H318L373 652V0H246Z" />
<glyph unicode="&#xb7;" horiz-adv-x="237" d="M119 253Q83 253 64 274T44 333Q44 368 64 390T119 413Q154 413 174 393T194 333Q194 298 173 276T119 253Z" />
<glyph unicode="&#xb8;" horiz-adv-x="500" d="M157 -245L149 -184Q172 -184 196 -177T238 -159T256 -136Q256 -122 241 -115T206 -103T172 -99L157 -88L229 24H295L252 -45Q302 -54 327 -78T352 -139Q352 -166 334 -186T287 -220T224 -240T157 -245Z" />
<glyph unicode="&#xb9;" horiz-adv-x="284" d="M122 429V709L132 683L79 650L40 721L144 783H211V429H167Q156 429 145 429T122 429Z" />
<glyph unicode="&#xba;" horiz-adv-x="369" d="M184 392Q137 392 101 412T45 469T24 550Q24 596 44 632T101 690T184 712Q229 712 265 691T323 632T345 550Q345 505 324 469T267 413T184 392ZM183 468Q212 468 229 491T247 551Q247 589 230 612T183 636Q155 636
138 612T120 551Q120 514 137 491T183 468Z" />
<glyph unicode="&#xbb;" horiz-adv-x="515" d="M340 43L267 94L386 270L385 252L266 427L339 479L503 266V260L340 43ZM113 43L40 94L159 270L158 252L39 427L112 479L276 266V260L113 43Z" />
<glyph unicode="&#xbc;" horiz-adv-x="802" d="M129 359V639L139 613L86 580L47 651L151 713H218V359H174Q163 359 152 359T129 359ZM104 0L571 700H686L218 0H104ZM686 153H762V77H686V153ZM515 119L499 153H641L618 129V283L647 272L515 119ZM703 -2H612V101L631
77H469L451 151L623 360H703V-2Z" />
<glyph unicode="&#xbd;" horiz-adv-x="799" d="M129 359V639L139 613L86 580L47 651L151 713H218V359H174Q163 359 152 359T129 359ZM106 0L573 700H688L220 0H106ZM521 0L511 76L611 169Q622 178 635 191T659 220T669 253Q669 268 661 276T636 285Q619 285 599
272T560 232L499 277Q524 319 561 342T644 366Q696 366 728 337T760 263Q760 231 744 204T705 155T661 117L599 61L602 75H765V0H521Z" />
<glyph unicode="&#xbe;" horiz-adv-x="810" d="M140 342Q107 342 77 351T21 376L58 439Q77 428 93 423T128 417Q154 417 170 430T187 465Q187 484 173 495T133 507Q120 507 105 504T77 495L55 554L170 645L185 632H45V707H241L249 635L144 552L133 559Q140 563
149 565T164 568Q214 568 243 540T273 463Q273 428 255 401T207 358T140 342ZM121 0L588 700H703L235 0H121ZM694 153H770V77H694V153ZM523 119L507 153H649L626 129V283L655 272L523 119ZM711 -2H620V101L639 77H477L459 151L631 360H711V-2Z" />
<glyph unicode="&#xbf;" horiz-adv-x="520" d="M310 313L338 176Q292 164 258 149T199 116T163 76T151 26Q151 0 162 -20T196 -51T247 -63Q278 -63 305 -52T357 -19T406 33L480 -44Q450 -84 413 -114T331 -160T237 -177Q172 -177 124 -152T50 -82T24 18Q24 67
48 109T115 184T214 241L229 313H310ZM345 465Q345 430 325 408T270 385Q235 385 216 406T196 465Q196 500 216 522T270 545Q306 545 325 525T345 465Z" />
<glyph unicode="&#xc0;" horiz-adv-x="699" d="M17 0L290 700H411L682 0H548L397 400Q393 411 385 437T366 494T348 551T336 590L361 591Q355 571 347 546T330 493T312 441T296 396L146 0H17ZM141 161L185 273H504L553 161H141ZM433 753L222 829L274 928L466 814L433
753Z" />
<glyph unicode="&#xc1;" horiz-adv-x="699" d="M17 0L290 700H411L682 0H548L397 400Q393 411 385 437T366 494T348 551T336 590L361 591Q355 571 347 546T330 493T312 441T296 396L146 0H17ZM141 161L185 273H504L553 161H141ZM275 753L244 814L436 928L486 829L275
753Z" />
<glyph unicode="&#xc2;" horiz-adv-x="699" d="M17 0L290 700H411L682 0H548L397 400Q393 411 385 437T366 494T348 551T336 590L361 591Q355 571 347 546T330 493T312 441T296 396L146 0H17ZM141 161L185 273H504L553 161H141ZM223 754L182 797L310 900H389L517
797L476 754L335 821H364L223 754Z" />
<glyph unicode="&#xc3;" horiz-adv-x="699" d="M17 0L290 700H411L682 0H548L397 400Q393 411 385 437T366 494T348 551T336 590L361 591Q355 571 347 546T330 493T312 441T296 396L146 0H17ZM141 161L185 273H504L553 161H141ZM425 768Q403 768 381 775T336 791Q319
798 307 802T285 806Q271 806 263 797T254 768H170Q170 826 205 858T289 891Q309 891 328 885T368 869Q383 862 396 858T418 854Q431 854 439 864T446 891H529Q529 858 517 830T481 785T425 768Z" />
<glyph unicode="&#xc4;" horiz-adv-x="699" d="M17 0L290 700H411L682 0H548L397 400Q393 411 385 437T366 494T348 551T336 590L361 591Q355 571 347 546T330 493T312 441T296 396L146 0H17ZM141 161L185 273H504L553 161H141ZM458 757Q421 757 402 776T383 829Q383
857 402 879T458 901Q496 901 514 882T533 829Q533 800 515 779T458 757ZM240 757Q202 757 184 776T165 829Q165 857 183 879T240 901Q278 901 296 882T315 829Q315 800 296 779T240 757Z" />
<glyph unicode="&#xc5;" horiz-adv-x="699" d="M17 0L290 700H411L682 0H548L397 400Q393 411 385 437T366 494T348 551T336 590L361 591Q355 571 347 546T330 493T312 441T296 396L146 0H17ZM141 161L185 273H504L553 161H141ZM349 677Q319 677 292 692T249 733T232
788Q232 820 248 845T292 886T349 901Q380 901 407 886T450 846T467 788Q467 758 451 733T407 693T349 677ZM349 744Q369 744 382 757T396 788Q396 809 382 821T349 833Q330 833 317 821T303 788Q303 770 316 757T349 744Z" />
<glyph unicode="&#xc6;" horiz-adv-x="1003" d="M1 0L489 700H934V591H606V409H889V301H606V109H934V0H484V149H221L293 255H484V557L510 549L135 0H1Z" />
<glyph unicode="&#xc7;" horiz-adv-x="684" d="M390 -10Q315 -10 252 16T143 90T72 205T46 351Q46 427 73 492T148 606T260 682T398 709Q449 709 497 694T585 653T652 590L569 501Q530 541 488 562T398 583Q352 583 312 566T242 518T195 445T178 350Q178 297 194
254T241 179T314 132T409 116Q441 116 472 124T530 150T578 189L642 86Q618 59 578 37T489 3T390 -10ZM289 -245L281 -184Q304 -184 328 -177T370 -159T388 -136Q388 -122 373 -115T338 -103T304 -99L290 -88L361 24H428L385 -45Q434 -54 459 -78T485 -139Q485
-166 467 -186T420 -220T357 -240T289 -245Z" />
<glyph unicode="&#xc8;" horiz-adv-x="624" d="M94 0V700H551V582H222V118H555V0H94ZM154 300V416H500V300H154ZM416 753L205 829L257 928L449 814L416 753Z" />
<glyph unicode="&#xc9;" horiz-adv-x="624" d="M94 0V700H551V582H222V118H555V0H94ZM154 300V416H500V300H154ZM257 753L226 814L418 928L468 829L257 753Z" />
<glyph unicode="&#xca;" horiz-adv-x="624" d="M94 0V700H551V582H222V118H555V0H94ZM154 300V416H500V300H154ZM205 754L164 797L292 900H371L499 797L458 754L317 821H346L205 754Z" />
<glyph unicode="&#xcb;" horiz-adv-x="624" d="M94 0V700H551V582H222V118H555V0H94ZM154 300V416H500V300H154ZM441 757Q404 757 385 776T366 829Q366 857 385 879T441 901Q479 901 497 882T516 829Q516 800 498 779T441 757ZM223 757Q185 757 167 776T148 829Q148
857 166 879T223 901Q261 901 279 882T298 829Q298 800 279 779T223 757Z" />
<glyph unicode="&#xcc;" horiz-adv-x="504" d="M73 0V115H187V585H73V700H431V585H316V115H431V0H73ZM591 753L380 829L432 928L624 814L591 753Z" />
<glyph unicode="&#xcd;" horiz-adv-x="504" d="M73 0V115H187V585H73V700H431V585H316V115H431V0H73ZM177 753L146 814L338 928L388 829L177 753Z" />
<glyph unicode="&#xce;" horiz-adv-x="504" d="M73 0V115H187V585H73V700H431V585H316V115H431V0H73ZM125 754L84 797L212 900H291L419 797L378 754L237 821H266L125 754Z" />
<glyph unicode="&#xcf;" horiz-adv-x="504" d="M73 0V115H187V585H73V700H431V585H316V115H431V0H73ZM361 757Q324 757 305 776T286 829Q286 857 305 879T361 901Q399 901 417 882T436 829Q436 800 418 779T361 757ZM143 757Q105 757 87 776T68 829Q68 857 86
879T143 901Q181 901 199 882T218 829Q218 800 199 779T143 757Z" />
<glyph unicode="&#xd0;" horiz-adv-x="756" d="M45 300V400H331V300H45ZM94 0V700H375Q451 700 512 675T618 603T686 492T710 350Q710 272 686 208T619 97T513 25T375 0H94ZM223 101L214 120H370Q419 120 458 136T523 181T564 254T579 350Q579 403 565 445T523
518T458 564T370 580H211L223 597V101Z" />
<glyph unicode="&#xd1;" horiz-adv-x="798" d="M94 0V700H210L618 152L596 147Q589 193 585 245T578 358T576 491V700H704V0H586L178 539L202 546Q209 475 213 430T219 355T221 307T222 271V0H94ZM475 768Q453 768 431 775T386 791Q369 798 357 802T335 806Q321
806 313 797T304 768H220Q220 826 255 858T339 891Q359 891 378 885T418 869Q433 862 446 858T468 854Q481 854 489 864T496 891H579Q579 858 567 830T531 785T475 768Z" />
<glyph unicode="&#xd2;" horiz-adv-x="791" d="M396 -10Q320 -10 257 17T146 92T72 207T46 351Q46 429 72 495T145 609T256 685T396 712Q471 712 535 685T646 609T719 494T745 351Q745 273 719 208T646 93T535 17T396 -10ZM396 114Q444 114 483 131T552 181T597
256T614 351Q614 402 598 445T552 521T484 570T396 588Q348 588 309 571T240 521T194 446T178 351Q178 282 206 229T283 145T396 114ZM479 753L268 829L320 928L512 814L479 753Z" />
<glyph unicode="&#xd3;" horiz-adv-x="791" d="M396 -10Q320 -10 257 17T146 92T72 207T46 351Q46 429 72 495T145 609T256 685T396 712Q471 712 535 685T646 609T719 494T745 351Q745 273 719 208T646 93T535 17T396 -10ZM396 114Q444 114 483 131T552 181T597
256T614 351Q614 402 598 445T552 521T484 570T396 588Q348 588 309 571T240 521T194 446T178 351Q178 282 206 229T283 145T396 114ZM321 753L290 814L482 928L532 829L321 753Z" />
<glyph unicode="&#xd4;" horiz-adv-x="791" d="M396 -10Q320 -10 257 17T146 92T72 207T46 351Q46 429 72 495T145 609T256 685T396 712Q471 712 535 685T646 609T719 494T745 351Q745 273 719 208T646 93T535 17T396 -10ZM396 114Q444 114 483 131T552 181T597
256T614 351Q614 402 598 445T552 521T484 570T396 588Q348 588 309 571T240 521T194 446T178 351Q178 282 206 229T283 145T396 114ZM269 754L228 797L356 900H435L563 797L522 754L381 821H410L269 754Z" />
<glyph unicode="&#xd5;" horiz-adv-x="791" d="M396 -10Q320 -10 257 17T146 92T72 207T46 351Q46 429 72 495T145 609T256 685T396 712Q471 712 535 685T646 609T719 494T745 351Q745 273 719 208T646 93T535 17T396 -10ZM396 114Q444 114 483 131T552 181T597
256T614 351Q614 402 598 445T552 521T484 570T396 588Q348 588 309 571T240 521T194 446T178 351Q178 282 206 229T283 145T396 114ZM471 768Q449 768 427 775T382 791Q365 798 353 802T331 806Q317 806 309 797T300 768H216Q216 826 251 858T335 891Q355 891
374 885T414 869Q429 862 442 858T464 854Q477 854 485 864T492 891H575Q575 858 563 830T527 785T471 768Z" />
<glyph unicode="&#xd6;" horiz-adv-x="791" d="M396 -10Q320 -10 257 17T146 92T72 207T46 351Q46 429 72 495T145 609T256 685T396 712Q471 712 535 685T646 609T719 494T745 351Q745 273 719 208T646 93T535 17T396 -10ZM396 114Q444 114 483 131T552 181T597
256T614 351Q614 402 598 445T552 521T484 570T396 588Q348 588 309 571T240 521T194 446T178 351Q178 282 206 229T283 145T396 114ZM504 757Q467 757 448 776T429 829Q429 857 448 879T504 901Q542 901 560 882T579 829Q579 800 561 779T504 757ZM286 757Q248
757 230 776T211 829Q211 857 229 879T286 901Q324 901 342 882T361 829Q361 800 342 779T286 757Z" />
<glyph unicode="&#xd7;" horiz-adv-x="500" d="M389 69L36 422L111 493L464 141L389 69ZM110 64L39 140L391 493L463 418L110 64Z" />
<glyph unicode="&#xd8;" horiz-adv-x="782" d="M128 -33L65 20L654 741L722 694L128 -33ZM395 -10Q319 -10 256 17T145 92T71 207T45 351Q45 429 71 495T144 609T255 685T395 712Q470 712 534 685T645 609T718 494T744 351Q744 273 718 208T645 93T534 17T395
-10ZM395 114Q443 114 482 131T551 181T596 256T613 351Q613 402 597 445T551 521T483 570T395 588Q347 588 308 571T239 521T193 446T177 351Q177 282 205 229T282 145T395 114Z" />
<glyph unicode="&#xd9;" horiz-adv-x="748" d="M374 -6Q291 -6 226 29T124 127T86 269V701H216V278Q216 231 237 194T295 136T374 114Q420 114 457 135T516 194T538 278V701H662V269Q662 190 625 128T522 30T374 -6ZM457 753L246 829L298 928L490 814L457 753Z" />
<glyph unicode="&#xda;" horiz-adv-x="748" d="M374 -6Q291 -6 226 29T124 127T86 269V701H216V278Q216 231 237 194T295 136T374 114Q420 114 457 135T516 194T538 278V701H662V269Q662 190 625 128T522 30T374 -6ZM299 753L268 814L460 928L510 829L299 753Z" />
<glyph unicode="&#xdb;" horiz-adv-x="748" d="M374 -6Q291 -6 226 29T124 127T86 269V701H216V278Q216 231 237 194T295 136T374 114Q420 114 457 135T516 194T538 278V701H662V269Q662 190 625 128T522 30T374 -6ZM247 754L206 797L334 900H413L541 797L500
754L359 821H388L247 754Z" />
<glyph unicode="&#xdc;" horiz-adv-x="748" d="M374 -6Q291 -6 226 29T124 127T86 269V701H216V278Q216 231 237 194T295 136T374 114Q420 114 457 135T516 194T538 278V701H662V269Q662 190 625 128T522 30T374 -6ZM483 757Q446 757 427 776T408 829Q408 857
427 879T483 901Q521 901 539 882T558 829Q558 800 540 779T483 757ZM265 757Q227 757 209 776T190 829Q190 857 208 879T265 901Q303 901 321 882T340 829Q340 800 321 779T265 757Z" />
<glyph unicode="&#xdd;" horiz-adv-x="670" d="M280 0V349L287 300L4 700H156L371 391L326 394L520 700H666L395 289L410 357V0H280ZM260 753L229 814L421 928L471 829L260 753Z" />
<glyph unicode="&#xde;" horiz-adv-x="644" d="M94 0V700H223V578H386Q446 578 494 549T571 470T600 358Q600 296 571 245T494 165T386 135H223V0H94ZM223 254H377Q402 254 422 268T455 305T468 358Q468 387 456 409T423 445T377 459H223V254Z" />
<glyph unicode="&#xdf;" horiz-adv-x="666" d="M424 -10Q378 -10 344 5T282 51L338 125Q363 104 383 96T424 87Q465 87 489 116T514 193Q514 241 495 276T438 335T344 373V445Q370 456 389 468T420 494T439 522T446 552Q446 587 420 606T348 626Q297 626 268 592T239
501V0H121V499Q121 569 149 622T229 704T353 734Q415 734 461 714T534 657T560 571Q560 543 547 515T510 465T454 427L452 441Q505 424 545 390T607 309T630 203Q630 143 603 95T530 18T424 -10ZM39 391V499H180V391H39Z" />
<glyph unicode="&#xe0;" horiz-adv-x="545" d="M373 0V337Q373 380 345 404T271 429Q229 429 195 413T132 360L56 436Q103 486 160 512T283 538Q346 538 391 518T462 459T487 362V0H373ZM223 -10Q172 -10 132 10T69 65T45 149Q45 191 60 222T104 275T178 306T281
317H432L423 229H274Q247 229 226 224T190 209T168 186T161 153Q161 133 171 119T198 96T238 88Q271 88 300 99T353 130T389 175L414 107Q393 72 363 46T297 5T223 -10ZM325 601L141 700L209 790L363 659L325 601Z" />
<glyph unicode="&#xe1;" horiz-adv-x="545" d="M373 0V337Q373 380 345 404T271 429Q229 429 195 413T132 360L56 436Q103 486 160 512T283 538Q346 538 391 518T462 459T487 362V0H373ZM223 -10Q172 -10 132 10T69 65T45 149Q45 191 60 222T104 275T178 306T281
317H432L423 229H274Q247 229 226 224T190 209T168 186T161 153Q161 133 171 119T198 96T238 88Q271 88 300 99T353 130T389 175L414 107Q393 72 363 46T297 5T223 -10ZM199 600L161 659L315 789L383 700L199 600Z" />
<glyph unicode="&#xe2;" horiz-adv-x="545" d="M373 0V337Q373 380 345 404T271 429Q229 429 195 413T132 360L56 436Q103 486 160 512T283 538Q346 538 391 518T462 459T487 362V0H373ZM223 -10Q172 -10 132 10T69 65T45 149Q45 191 60 222T104 275T178 306T281
317H432L423 229H274Q247 229 226 224T190 209T168 186T161 153Q161 133 171 119T198 96T238 88Q271 88 300 99T353 130T389 175L414 107Q393 72 363 46T297 5T223 -10ZM147 605L103 644L227 762H317L441 644L397 605L257 682H287L147 605Z" />
<glyph unicode="&#xe3;" horiz-adv-x="545" d="M373 0V337Q373 380 345 404T271 429Q229 429 195 413T132 360L56 436Q103 486 160 512T283 538Q346 538 391 518T462 459T487 362V0H373ZM223 -10Q172 -10 132 10T69 65T45 149Q45 191 60 222T104 275T178 306T281
317H432L423 229H274Q247 229 226 224T190 209T168 186T161 153Q161 133 171 119T198 96T238 88Q271 88 300 99T353 130T389 175L414 107Q393 72 363 46T297 5T223 -10ZM329 615Q310 615 296 622T263 642Q244 658 235 664T217 671Q203 671 193 658T180 616L104
627Q106 678 136 715T216 753Q235 753 249 746T282 726Q300 712 310 705T329 697Q343 697 352 711T366 752L441 741Q440 708 426 679T387 632T329 615Z" />
<glyph unicode="&#xe4;" horiz-adv-x="545" d="M373 0V337Q373 380 345 404T271 429Q229 429 195 413T132 360L56 436Q103 486 160 512T283 538Q346 538 391 518T462 459T487 362V0H373ZM223 -10Q172 -10 132 10T69 65T45 149Q45 191 60 222T104 275T178 306T281
317H432L423 229H274Q247 229 226 224T190 209T168 186T161 153Q161 133 171 119T198 96T238 88Q271 88 300 99T353 130T389 175L414 107Q393 72 363 46T297 5T223 -10ZM379 638Q343 638 324 657T304 710Q304 742 324 762T379 782Q415 782 434 764T454 710Q454
679 434 659T379 638ZM165 638Q129 638 110 657T90 710Q90 742 110 762T165 782Q201 782 220 764T240 710Q240 679 220 659T165 638Z" />
<glyph unicode="&#xe5;" horiz-adv-x="545" d="M373 0V337Q373 380 345 404T271 429Q229 429 195 413T132 360L56 436Q103 486 160 512T283 538Q346 538 391 518T462 459T487 362V0H373ZM223 -10Q172 -10 132 10T69 65T45 149Q45 191 60 222T104 275T178 306T281
317H432L423 229H274Q247 229 226 224T190 209T168 186T161 153Q161 133 171 119T198 96T238 88Q271 88 300 99T353 130T389 175L414 107Q393 72 363 46T297 5T223 -10ZM272 604Q243 604 217 619T175 659T159 713Q159 743 174 768T216 808T272 823Q303 823 329
808T370 768T386 713Q386 684 371 659T329 619T272 604ZM272 670Q291 670 304 682T318 713Q318 732 305 744T272 757Q253 757 240 745T227 713Q227 695 240 683T272 670Z" />
<glyph unicode="&#xe6;" horiz-adv-x="907" d="M224 -10Q174 -10 133 10T69 65T45 149Q45 191 60 222T105 275T179 307T282 317H764L750 302V325Q748 355 731 379T688 416T629 430Q583 430 551 412T502 357T485 268Q485 219 508 181T572 121T665 99Q703 99 734
111T803 154L859 68Q833 44 799 27T727 0T653 -10Q570 -10 508 24T411 118T376 259Q376 320 395 371T449 459T529 517T629 538Q698 538 753 504T839 412T870 279L869 233H274Q247 233 227 228T192 213T170 188T162 154Q162 135 172 120T199 97T239 88Q272 88 301
99T354 130T390 175L437 103Q415 69 381 44T307 4T224 -10ZM375 254V348Q375 367 367 381T345 407T312 423T271 429Q229 429 196 413T136 360L60 436Q101 484 157 511T280 538Q328 538 365 528T429 499T470 450T485 381V259L375 254Z" />
<glyph unicode="&#xe7;" horiz-adv-x="538" d="M298 -10Q224 -10 165 26T72 124T38 264Q38 342 72 404T165 502T298 538Q368 538 426 511T516 436L449 354Q434 375 411 392T362 419T310 429Q265 429 231 408T176 349T156 264Q156 217 176 180T232 121T310 99Q337
99 361 107T407 132T449 172L516 90Q483 46 423 18T298 -10ZM205 -245L197 -184Q220 -184 244 -177T286 -159T304 -136Q304 -122 289 -115T254 -103T220 -99L205 -88L277 24H343L300 -45Q350 -54 375 -78T400 -139Q400 -166 382 -186T335 -220T272 -240T205 -245Z"
/>
<glyph unicode="&#xe8;" horiz-adv-x="586" d="M319 -10Q236 -10 173 24T74 119T38 259Q38 321 58 372T114 460T199 518T307 539Q360 539 404 519T482 465T532 383T549 279L548 235H122L98 320H445L430 303V326Q427 356 410 379T367 416T308 430Q259 430 225 412T174
357T156 268Q156 217 177 179T239 120T332 99Q369 99 400 111T468 154L528 70Q501 45 467 28T394 0T319 -10ZM360 601L176 700L244 790L398 659L360 601Z" />
<glyph unicode="&#xe9;" horiz-adv-x="586" d="M319 -10Q236 -10 173 24T74 119T38 259Q38 321 58 372T114 460T199 518T307 539Q360 539 404 519T482 465T532 383T549 279L548 235H122L98 320H445L430 303V326Q427 356 410 379T367 416T308 430Q259 430 225 412T174
357T156 268Q156 217 177 179T239 120T332 99Q369 99 400 111T468 154L528 70Q501 45 467 28T394 0T319 -10ZM234 600L196 659L350 789L418 700L234 600Z" />
<glyph unicode="&#xea;" horiz-adv-x="586" d="M319 -10Q236 -10 173 24T74 119T38 259Q38 321 58 372T114 460T199 518T307 539Q360 539 404 519T482 465T532 383T549 279L548 235H122L98 320H445L430 303V326Q427 356 410 379T367 416T308 430Q259 430 225 412T174
357T156 268Q156 217 177 179T239 120T332 99Q369 99 400 111T468 154L528 70Q501 45 467 28T394 0T319 -10ZM182 605L138 644L262 762H352L476 644L432 605L292 682H322L182 605Z" />
<glyph unicode="&#xeb;" horiz-adv-x="586" d="M319 -10Q236 -10 173 24T74 119T38 259Q38 321 58 372T114 460T199 518T307 539Q360 539 404 519T482 465T532 383T549 279L548 235H122L98 320H445L430 303V326Q427 356 410 379T367 416T308 430Q259 430 225 412T174
357T156 268Q156 217 177 179T239 120T332 99Q369 99 400 111T468 154L528 70Q501 45 467 28T394 0T319 -10ZM414 638Q378 638 359 657T339 710Q339 742 359 762T414 782Q450 782 469 764T489 710Q489 679 469 659T414 638ZM200 638Q164 638 145 657T125 710Q125
742 145 762T200 782Q236 782 255 764T275 710Q275 679 255 659T200 638Z" />
<glyph unicode="&#xec;" horiz-adv-x="259" d="M68 0V527H190V0H68ZM181 601L-3 700L65 790L219 659L181 601Z" />
<glyph unicode="&#xed;" horiz-adv-x="259" d="M68 0V527H190V0H68ZM55 600L17 659L171 789L239 700L55 600Z" />
<glyph unicode="&#xee;" horiz-adv-x="259" d="M68 0V527H190V0H68ZM3 605L-41 644L83 762H173L297 644L253 605L113 682H143L3 605Z" />
<glyph unicode="&#xef;" horiz-adv-x="259" d="M68 0V527H190V0H68ZM235 638Q199 638 180 657T160 710Q160 742 180 762T235 782Q271 782 290 764T310 710Q310 679 290 659T235 638ZM21 638Q-15 638 -34 657T-54 710Q-54 742 -34 762T21 782Q57 782 76 764T96
710Q96 679 76 659T21 638Z" />
<glyph unicode="&#xf0;" horiz-adv-x="581" d="M290 -7Q219 -7 162 28T72 125T38 260Q38 314 57 361T110 445T187 503T279 524Q329 524 368 503T434 442T471 348L406 379Q403 436 389 479T347 555T275 612T169 656L213 742Q273 727 324 699T416 629T485 536T528
420T543 283Q543 198 511 133T422 30T290 -7ZM291 103Q329 103 360 124T410 181T429 262Q429 305 411 340T361 397T291 418Q252 418 221 398T171 342T153 262Q153 217 171 181T220 124T291 103ZM154 524L141 590L290 628L346 650L492 683L511 617L397 591L355 571L154
524Z" />
<glyph unicode="&#xf1;" horiz-adv-x="609" d="M72 0V527H191L193 419L170 407Q181 442 209 471T278 519T361 538Q421 538 461 514T522 442T542 322V0H420V313Q420 354 409 380T375 419T319 430Q292 430 269 422T230 398T204 362T194 317V0H133Q116 0 101 0T72
0ZM391 615Q372 615 358 622T325 642Q306 658 297 664T279 671Q265 671 255 658T242 616L166 627Q168 678 198 715T278 753Q297 753 311 746T344 726Q362 712 372 705T391 697Q405 697 414 711T428 752L503 741Q502 708 488 679T449 632T391 615Z" />
<glyph unicode="&#xf2;" horiz-adv-x="623" d="M312 -10Q233 -10 171 25T74 123T38 264Q38 343 73 405T171 502T312 538Q390 538 452 503T549 405T585 264Q585 185 550 123T452 26T312 -10ZM312 99Q355 99 389 120T442 179T461 264Q462 312 443 349T389 408T312
429Q269 429 235 408T181 349T162 264Q162 217 181 180T234 121T312 99ZM365 601L181 700L249 790L403 659L365 601Z" />
<glyph unicode="&#xf3;" horiz-adv-x="623" d="M312 -10Q233 -10 171 25T74 123T38 264Q38 343 73 405T171 502T312 538Q390 538 452 503T549 405T585 264Q585 185 550 123T452 26T312 -10ZM312 99Q355 99 389 120T442 179T461 264Q462 312 443 349T389 408T312
429Q269 429 235 408T181 349T162 264Q162 217 181 180T234 121T312 99ZM239 600L201 659L355 789L423 700L239 600Z" />
<glyph unicode="&#xf4;" horiz-adv-x="623" d="M312 -10Q233 -10 171 25T74 123T38 264Q38 343 73 405T171 502T312 538Q390 538 452 503T549 405T585 264Q585 185 550 123T452 26T312 -10ZM312 99Q355 99 389 120T442 179T461 264Q462 312 443 349T389 408T312
429Q269 429 235 408T181 349T162 264Q162 217 181 180T234 121T312 99ZM187 605L143 644L267 762H357L481 644L437 605L297 682H327L187 605Z" />
<glyph unicode="&#xf5;" horiz-adv-x="623" d="M312 -10Q233 -10 171 25T74 123T38 264Q38 343 73 405T171 502T312 538Q390 538 452 503T549 405T585 264Q585 185 550 123T452 26T312 -10ZM312 99Q355 99 389 120T442 179T461 264Q462 312 443 349T389 408T312
429Q269 429 235 408T181 349T162 264Q162 217 181 180T234 121T312 99ZM368 615Q349 615 335 622T302 642Q283 658 274 664T256 671Q242 671 232 658T219 616L143 627Q145 678 175 715T255 753Q274 753 288 746T321 726Q339 712 349 705T368 697Q382 697 391 711T405
752L480 741Q479 708 465 679T426 632T368 615Z" />
<glyph unicode="&#xf6;" horiz-adv-x="623" d="M312 -10Q233 -10 171 25T74 123T38 264Q38 343 73 405T171 502T312 538Q390 538 452 503T549 405T585 264Q585 185 550 123T452 26T312 -10ZM312 99Q355 99 389 120T442 179T461 264Q462 312 443 349T389 408T312
429Q269 429 235 408T181 349T162 264Q162 217 181 180T234 121T312 99ZM419 638Q383 638 364 657T344 710Q344 742 364 762T419 782Q455 782 474 764T494 710Q494 679 474 659T419 638ZM205 638Q169 638 150 657T130 710Q130 742 150 762T205 782Q241 782 260
764T280 710Q280 679 260 659T205 638Z" />
<glyph unicode="&#xf7;" horiz-adv-x="597" d="M48 209V313H549V209H48ZM294 1Q273 1 256 10T230 36T220 73Q220 94 229 110T256 135T294 145Q315 145 332 136T358 111T368 73Q368 53 359 37T332 11T294 1ZM294 375Q273 375 256 384T230 410T220 445Q220 466 229
482T256 508T294 518Q315 518 332 509T358 483T368 445Q368 426 358 410T331 385T294 375Z" />
<glyph unicode="&#xf8;" horiz-adv-x="623" d="M111 -35L45 13L501 550L568 501L111 -35ZM312 -10Q233 -10 171 25T74 123T38 264Q38 343 73 405T171 502T312 538Q390 538 452 503T549 405T585 264Q585 185 550 123T452 26T312 -10ZM312 99Q355 99 389 120T442
179T461 264Q462 312 443 349T389 408T312 429Q269 429 235 408T181 349T162 264Q162 217 181 180T234 121T312 99Z" />
<glyph unicode="&#xf9;" horiz-adv-x="618" d="M255 -10Q198 -10 157 16T93 89T70 202V527H192V228Q192 166 221 130T304 94Q330 94 351 102T389 126T414 164T423 211V527H545V0H426L424 110L446 122Q434 85 406 55T338 8T255 -10ZM362 601L178 700L246 790L400
659L362 601Z" />
<glyph unicode="&#xfa;" horiz-adv-x="618" d="M255 -10Q198 -10 157 16T93 89T70 202V527H192V228Q192 166 221 130T304 94Q330 94 351 102T389 126T414 164T423 211V527H545V0H426L424 110L446 122Q434 85 406 55T338 8T255 -10ZM236 600L198 659L352 789L420
700L236 600Z" />
<glyph unicode="&#xfb;" horiz-adv-x="618" d="M255 -10Q198 -10 157 16T93 89T70 202V527H192V228Q192 166 221 130T304 94Q330 94 351 102T389 126T414 164T423 211V527H545V0H426L424 110L446 122Q434 85 406 55T338 8T255 -10ZM184 605L140 644L264 762H354L478
644L434 605L294 682H324L184 605Z" />
<glyph unicode="&#xfc;" horiz-adv-x="618" d="M255 -10Q198 -10 157 16T93 89T70 202V527H192V228Q192 166 221 130T304 94Q330 94 351 102T389 126T414 164T423 211V527H545V0H426L424 110L446 122Q434 85 406 55T338 8T255 -10ZM416 638Q380 638 361 657T341
710Q341 742 361 762T416 782Q452 782 471 764T491 710Q491 679 471 659T416 638ZM202 638Q166 638 147 657T127 710Q127 742 147 762T202 782Q238 782 257 764T277 710Q277 679 257 659T202 638Z" />
<glyph unicode="&#xfd;" horiz-adv-x="594" d="M153 -230L264 28L265 -55L5 527H146L292 180Q299 167 306 146T318 104L293 95Q300 114 307 136T323 180L447 527H589L370 0L281 -230H153ZM225 600L187 659L341 789L409 700L225 600Z" />
<glyph unicode="&#xfe;" horiz-adv-x="640" d="M72 -220V740H195V408L173 417Q179 448 207 475T275 519T360 536Q430 536 484 501T570 405T602 264Q602 185 571 124T485 27T362 -9Q316 -9 274 9T202 56T165 117L195 131V-220H72ZM337 100Q380 100 413 121T464
179T483 264Q483 312 465 348T414 406T337 428Q294 428 261 407T209 349T190 264Q190 216 209 179T261 121T337 100Z" />
<glyph unicode="&#xff;" horiz-adv-x="594" d="M153 -230L264 28L265 -55L5 527H146L292 180Q299 167 306 146T318 104L293 95Q300 114 307 136T323 180L447 527H589L370 0L281 -230H153ZM404 638Q368 638 349 657T329 710Q329 742 349 762T404 782Q440 782 459
764T479 710Q479 679 459 659T404 638ZM190 638Q154 638 135 657T115 710Q115 742 135 762T190 782Q226 782 245 764T265 710Q265 679 245 659T190 638Z" />
<glyph unicode="&#x2013;" horiz-adv-x="540" d="M54 231V343H486V231H54Z" />
<glyph unicode="&#x2014;" horiz-adv-x="889" d="M54 231V344H835V231H54Z" />
<glyph unicode="&#x2018;" horiz-adv-x="252" d="M142 464Q113 464 90 479T54 520T40 581Q40 609 51 636T83 686T130 728T190 755L231 706Q191 688 166 664T141 622Q141 610 150 600T171 581Q193 563 201 550T210 521Q210 495 191 480T142 464Z" />
<glyph unicode="&#x2019;" horiz-adv-x="252" d="M62 459L21 509Q61 527 86 551T112 592Q112 605 102 615T82 633Q59 651 51 664T43 693Q43 719 62 735T111 751Q140 751 163 736T199 695T213 633Q213 605 202 578T170 528T122 486T62 459Z" />
<glyph unicode="&#x201a;" horiz-adv-x="274" d="M87 -186L46 -137Q83 -117 106 -91T129 -45Q129 -35 124 -25T102 1Q81 19 75 33T68 64Q68 91 87 106T135 122Q162 122 183 107T217 66T229 4Q229 -27 219 -56T189 -111T144 -155T87 -186Z" />
<glyph unicode="&#x201c;" horiz-adv-x="468" d="M142 715Q113 715 90 730T54 771T40 832Q40 860 51 887T83 937T130 979T190 1006L231 957Q191 939 166 915T141 873Q141 861 150 851T171 832Q193 814 201 801T210 772Q210 746 191 731T142 715ZM358 459Q329 459
306 474T270 515T256 576Q256 604 267 631T299 681T346 723T406 750L447 701Q407 683 382 659T357 617Q357 605 366 595T387 576Q409 558 417 545T426 516Q426 490 407 475T358 459Z" />
<glyph unicode="&#x201d;" horiz-adv-x="466" d="M62 459L21 509Q61 527 86 551T112 592Q112 605 102 615T82 633Q59 651 51 664T43 693Q43 719 62 735T111 751Q140 751 163 736T199 695T213 633Q213 605 202 578T170 528T122 486T62 459ZM275 459L234 509Q274
527 299 551T325 592Q325 605 315 615T295 633Q272 651 264 664T256 693Q256 719 275 735T324 751Q353 751 376 736T412 695T426 633Q426 605 415 578T383 528T335 486T275 459Z" />
<glyph unicode="&#x201e;" horiz-adv-x="500" d="M87 -186L46 -137Q83 -117 106 -91T129 -45Q129 -35 124 -25T102 1Q81 19 75 33T68 64Q68 91 87 106T135 122Q162 122 183 107T217 66T229 4Q229 -27 219 -56T189 -111T144 -155T87 -186ZM313 -186L272 -137Q309
-117 332 -91T355 -45Q355 -35 350 -25T328 1Q307 19 301 33T294 64Q294 91 313 106T361 122Q388 122 409 107T443 66T455 4Q455 -27 445 -56T415 -111T370 -155T313 -186Z" />
<glyph unicode="&#x2022;" horiz-adv-x="346" d="M173 215Q136 215 105 233T55 283T36 351Q36 389 54 420T104 470T173 489Q211 489 242 471T292 421T311 351Q311 314 293 283T243 234T173 215Z" />
<glyph unicode="&#x2039;" horiz-adv-x="287" d="M175 42L11 255V261L174 478L247 427L127 251L128 269L247 94L175 42Z" />
<glyph unicode="&#x203a;" horiz-adv-x="288" d="M113 43L40 94L159 270L158 252L39 427L112 479L276 266V260L113 43Z" />
</font>
</defs>
</svg>
