<?xml version="1.0" standalone="no"?>
<!DOCTYPE svg PUBLIC "-//W3C//DTD SVG 1.1//EN" "http://www.w3.org/Graphics/SVG/1.1/DTD/svg11.dtd">
<svg xmlns="http://www.w3.org/2000/svg">
<defs >
<font id="ReadexPro" horiz-adv-x="596" ><font-face
    font-family="Readex Pro Light"
    units-per-em="1000"
    panose-1="0 0 0 0 0 0 0 0 0 0"
    ascent="1000"
    descent="-250"
    alphabetic="0" />
<glyph unicode=" " horiz-adv-x="280" />
<glyph unicode="!" horiz-adv-x="242" d="M99 241Q94 294 91 349T85 459T82 565L83 700H162V565Q162 512 160 456T154 345T144 241H99ZM119 -10Q92 -10 78 6T63 52Q63 80 78 97T119 114Q147 114 161 98T176 52Q176 25 161 8T119 -10Z" />
<glyph unicode="&quot;" horiz-adv-x="384" d="M221 442L253 700H339L267 442H221ZM51 442L83 700H171L97 442H51Z" />
<glyph unicode="#" horiz-adv-x="681" d="M382 0L502 700H569L449 0H382ZM35 187V250H610V187H35ZM112 0L232 700H299L179 0H112ZM73 460V523H647V460H73Z" />
<glyph unicode="$" horiz-adv-x="604" d="M308 -10Q227 -10 162 22T52 115L105 177Q152 115 201 89T316 62Q360 62 396 77T453 118T475 177Q475 199 468 217T447 249T411 276T361 298T297 316Q226 334 179 360T109 425T86 519Q86 575 116 617T199 683T317 707Q397
707 454 677T545 593L490 538Q460 582 416 609T315 636Q271 636 237 622T184 581T165 520Q165 496 174 477T202 443T252 416T327 392Q381 378 423 360T494 319T539 265T555 195Q555 134 524 88T438 16T308 -10ZM265 -91V362L337 338V-91H265ZM364 340L292 363V782H364V340Z"
/>
<glyph unicode="%" horiz-adv-x="836" d="M143 0L607 700H685L218 0H143ZM193 329Q148 329 114 353T60 420T40 518Q40 573 59 616T114 684T194 709Q239 709 273 685T327 617T347 518Q347 465 327 422T272 354T193 329ZM194 386Q220 386 240 402T272 448T284 518Q284
558 273 588T241 635T193 651Q166 651 146 635T114 588T102 518Q102 458 127 422T194 386ZM636 -9Q591 -9 557 16T503 83T483 180Q483 235 502 278T556 346T636 371Q681 371 715 347T770 279T790 180Q790 127 770 84T715 16T636 -9ZM636 47Q663 47 683 63T715 110T727
180Q727 240 702 276T636 313Q609 313 589 297T557 250T545 180Q545 120 570 84T636 47Z" />
<glyph unicode="&amp;" horiz-adv-x="711" d="M563 0L487 82L472 98L281 308Q252 341 228 370T188 426T163 479T154 530Q154 581 180 621T252 684T358 707Q403 707 440 692T506 647T547 579L489 542Q468 593 437 616T358 639Q320 639 293 626T251 589T237 532Q237
510 246 486T272 437T309 390T350 343L524 151L545 127L662 0H563ZM309 -10Q235 -10 177 19T84 100T50 215Q50 288 90 344T208 432L255 375Q193 358 162 320T130 225Q130 177 154 140T221 82T323 61Q374 61 416 80T490 134T544 218T574 329H643Q635 268 616 216T567
122T499 51T413 6T309 -10Z" />
<glyph unicode="&apos;" horiz-adv-x="199" d="M44 442L71 700H159L90 442H44Z" />
<glyph unicode="(" horiz-adv-x="356" d="M297 -186Q175 -110 111 4T47 258Q47 397 111 511T298 702L339 655Q231 582 175 480T119 258Q119 139 174 38T339 -139L297 -186Z" />
<glyph unicode=")" horiz-adv-x="356" d="M58 -186L17 -139Q125 -66 180 36T236 258Q236 378 182 479T17 655L59 702Q181 626 245 512T309 258Q309 119 245 5T58 -186Z" />
<glyph unicode="*" horiz-adv-x="392" d="M168 376L175 506L182 505L68 432L39 482L161 542L160 534L37 594L67 644L183 570L175 566L168 700H227L219 562L209 568L325 642L354 592L232 532V543L353 483L324 434L209 506L219 505L227 376H168Z" />
<glyph unicode="+" horiz-adv-x="591" d="M253 42V525H332V42H253ZM50 249V316H540V249H50Z" />
<glyph unicode="," horiz-adv-x="250" d="M87 -160L59 -126Q89 -105 107 -81T126 -40Q126 -28 121 -20T100 1Q84 16 78 27T72 51Q72 71 86 83T123 96Q144 96 161 84T187 51T197 0Q197 -26 190 -49T168 -92T133 -129T87 -160Z" />
<glyph unicode="-" horiz-adv-x="394" d="M56 244V320H338V244H56Z" />
<glyph unicode="." horiz-adv-x="228" d="M114 -9Q87 -9 73 6T58 51Q58 78 73 94T114 111Q141 111 155 96T170 51Q170 25 155 8T114 -9Z" />
<glyph unicode="/" horiz-adv-x="560" d="M37 -120L443 700H517L111 -120H37Z" />
<glyph unicode="0" horiz-adv-x="611" d="M306 -10Q224 -10 167 33T79 156T48 350Q48 463 78 543T166 667T306 710Q387 710 445 667T533 544T564 350Q564 237 534 157T445 33T306 -10ZM306 63Q392 63 439 137T486 350Q486 488 439 562T306 637Q219 637 172 563T125
350Q125 212 172 138T306 63Z" />
<glyph unicode="1" horiz-adv-x="459" d="M204 35V638L231 619L92 539L71 608L246 710H284V35H204ZM91 0V76H399V0H91Z" />
<glyph unicode="2" horiz-adv-x="548" d="M88 0L64 59L304 323Q320 341 338 364T374 413T402 465T413 518Q413 554 396 580T350 621T280 636Q247 636 215 620T157 570T115 487L53 525Q71 585 105 626T186 689T289 710Q348 710 394 686T467 620T494 524Q494 493
486 463T460 401T419 337T362 269L159 51L146 76H513V0H88Z" />
<glyph unicode="3" horiz-adv-x="529" d="M255 -10Q182 -10 125 24T20 138L83 177Q110 135 138 109T197 72T262 61Q305 61 340 82T396 139T417 221Q417 267 399 300T349 351T274 370Q256 370 236 367T194 355T147 330L123 390L372 650L386 626H69V700H457L475
666L226 404L205 423Q220 433 240 438T282 444Q327 444 365 428T432 382T477 312T494 225Q494 159 462 106T377 21T255 -10Z" />
<glyph unicode="4" horiz-adv-x="620" d="M380 0V603L401 599L117 253L113 263H578V190H66L32 257L394 700H456V0H380Z" />
<glyph unicode="5" horiz-adv-x="568" d="M257 -8Q188 -8 132 24T39 115L85 165Q129 111 170 88T257 65Q306 65 345 87T408 148T431 232Q431 277 410 313T353 371T271 393Q246 393 222 388T171 371T109 338L67 394L110 700H487V626H156L176 643L139 391L119 413Q135
427 162 439T220 459T283 467Q348 467 398 438T478 357T508 238Q508 169 475 113T385 25T257 -8Z" />
<glyph unicode="6" horiz-adv-x="573" d="M287 -3Q237 -3 194 15T118 66T68 143T49 242Q49 279 61 325T97 425T158 539L263 708H340L343 699L227 511Q198 464 176 421T139 340T119 274L101 344Q126 388 157 417T225 462T304 478Q364 478 413 447T492 363T522 247Q522
176 492 119T408 30T287 -3ZM288 70Q333 70 368 92T425 152T446 239Q446 284 425 321T368 381T289 404Q243 404 206 382T148 323T127 239Q127 192 148 154T205 93T288 70Z" />
<glyph unicode="7" horiz-adv-x="517" d="M107 0L403 653L414 626H40V700H465L479 648L193 0H107Z" />
<glyph unicode="8" horiz-adv-x="579" d="M289 -3Q224 -3 171 24T86 96T54 197Q54 230 63 259T92 311T139 354T202 385L199 368Q161 378 133 400T91 453T76 516Q76 569 104 611T181 679T289 704Q349 704 397 679T475 612T504 516Q504 483 490 454T447 403T379
368L378 383Q422 368 455 341T507 276T526 197Q526 141 494 96T409 24T289 -3ZM289 71Q334 71 369 88T426 135T447 200Q447 239 427 269T371 317T289 335Q245 335 210 318T153 270T132 200Q132 165 153 136T209 89T289 71ZM289 405Q328 405 359 419T407 459T425
517Q425 549 408 574T359 615T289 630Q250 630 220 615T172 575T154 517Q154 484 171 460T219 420T289 405Z" />
<glyph unicode="9" horiz-adv-x="550" d="M242 0L239 8L447 429L450 375Q427 333 396 304T328 259T252 244Q193 244 144 274T66 355T36 468Q36 537 67 592T153 679T274 711Q324 711 366 694T441 644T492 569T511 477Q511 449 505 419T487 353T457 276T412 182L320
0H242ZM267 318Q312 318 348 339T405 395T426 476Q426 521 406 558T350 616T268 637Q226 637 192 616T137 559T117 476Q117 433 137 397T191 340T267 318Z" />
<glyph unicode=":" horiz-adv-x="228" d="M114 -9Q87 -9 73 6T58 51Q58 78 73 94T114 111Q141 111 155 96T170 51Q170 25 155 8T114 -9ZM114 409Q87 409 73 424T58 469Q58 496 73 512T114 529Q141 529 155 514T170 469Q170 443 155 426T114 409Z" />
<glyph unicode=";" horiz-adv-x="249" d="M342 -160L314 -126Q344 -105 362 -81T381 -40Q381 -28 376 -20T355 1Q339 16 333 27T327 51Q327 71 341 83T378 96Q399 96 416 84T442 51T452 0Q452 -26 445 -49T423 -92T388 -129T342 -160ZM129 409Q102 409 88 424T73
469Q73 496 88 512T129 529Q156 529 170 514T185 469Q185 443 170 426T129 409Z" />
<glyph unicode="&lt;" horiz-adv-x="507" d="M408 15L49 221V283L408 489L445 433L90 229V275L445 72L408 15Z" />
<glyph unicode="=" horiz-adv-x="566" d="M55 337V404H511V337H55ZM55 158V225H511V158H55Z" />
<glyph unicode="&gt;" horiz-adv-x="506" d="M98 15L62 72L417 275V229L62 433L98 489L457 283V221L98 15Z" />
<glyph unicode="?" horiz-adv-x="487" d="M190 190L173 340Q221 352 257 369T318 408T353 457T365 515Q365 549 350 576T305 620T234 637Q199 637 169 625T113 587T67 522L15 566Q39 612 73 644T149 692T239 709Q301 709 348 685T421 617T447 519Q447 470 423
427T358 351T261 301L249 190H190ZM164 49Q164 76 178 92T218 109Q245 109 259 94T273 49Q273 23 258 6T218 -11Q192 -11 178 5T164 49Z" />
<glyph unicode="@" horiz-adv-x="972" d="M418 -162Q332 -162 264 -135T146 -59T71 60T45 212Q45 323 84 414T195 571T360 674T566 710Q648 710 714 687T828 622T901 521T927 392Q927 321 908 260T854 153T774 81T679 55Q646 55 623 67T587 99T574 146Q574 163
578 182T589 225L602 208Q586 160 559 126T495 73T414 55Q370 55 335 77T279 140T259 235Q259 285 276 334T325 422T400 486T495 510Q527 510 555 496T604 453T630 383L611 342L636 501H711L656 187Q650 151 660 134T699 117Q731 117 761 136T814 192T850 279T864
388Q864 470 827 528T723 618T564 650Q460 650 376 618T233 528T141 390T109 216Q109 142 130 84T192 -16T289 -80T420 -102Q463 -102 501 -94T574 -72T643 -39L672 -90Q621 -117 579 -132T497 -155T418 -162ZM430 119Q472 119 507 142T568 204T600 293Q602 306
603 318T605 339Q605 368 593 392T556 431T497 446Q454 446 417 417T358 338T335 232Q335 181 361 150T430 119Z" />
<glyph unicode="A" horiz-adv-x="670" d="M23 0L293 700H378L647 0H562L391 450Q388 457 380 481T361 537T340 596T324 640H343Q337 623 328 596T309 540T289 486T275 446L105 0H23ZM137 193L166 270H497L530 193H137Z" />
<glyph unicode="B" horiz-adv-x="671" d="M102 0V700H386Q449 700 493 679T561 619T584 527Q584 467 549 425T452 368L449 386Q503 378 541 353T600 289T621 201Q621 155 607 118T563 54T490 14T390 0H102ZM181 76H387Q464 76 502 110T540 201Q540 239 522 266T469
308T385 323H181V76ZM181 400H380Q415 400 443 414T488 454T505 513Q505 563 470 593T373 624H181V400Z" />
<glyph unicode="C" horiz-adv-x="683" d="M388 -10Q314 -10 253 16T146 90T76 204T51 349Q51 425 77 490T149 604T258 680T394 707Q446 707 493 692T580 651T647 588L593 533Q550 579 500 603T394 628Q338 628 290 607T207 549T151 461T131 349Q131 286 151 235T206
147T291 90T400 70Q437 70 472 79T537 107T592 149L633 84Q608 57 569 36T484 2T388 -10Z" />
<glyph unicode="D" horiz-adv-x="744" d="M102 0V700H367Q438 700 498 675T602 603T670 492T694 350Q694 273 670 209T603 98T499 26T367 0H102ZM181 66L176 76H362Q417 76 463 96T543 151T595 238T613 350Q613 411 595 461T543 548T463 604T362 624H174L181 633V66Z" />
<glyph unicode="E" horiz-adv-x="598" d="M102 0V700H526V624H181V76H524V0H102ZM139 322V398H470V322H139Z" />
<glyph unicode="F" horiz-adv-x="593" d="M102 0V700H181V0H102ZM138 312V389H486V312H138ZM139 624V700H535V624H139Z" />
<glyph unicode="G" horiz-adv-x="766" d="M407 -10Q331 -10 266 17T153 92T78 206T51 349Q51 425 77 490T152 604T265 680T406 707Q460 707 510 692T602 649T671 584L619 531Q575 578 521 604T406 630Q347 630 297 609T210 550T152 461T131 349Q131 290 152 239T212
149T300 89T409 67Q460 67 501 82T574 125T621 190T638 271V291L650 280H408V359H719Q721 349 721 341T722 326T723 313Q723 238 700 179T634 77T534 13T407 -10Z" />
<glyph unicode="H" horiz-adv-x="751" d="M570 0V700H649V0H570ZM102 0V700H181V0H102ZM137 311V387H606V311H137Z" />
<glyph unicode="I" horiz-adv-x="447" d="M65 0V74H184V626H65V700H383V626H263V74H383V0H65Z" />
<glyph unicode="J" horiz-adv-x="614" d="M240 -10Q206 -10 176 -1T120 25T74 65T40 118L90 170Q116 130 139 108T186 76T241 67Q282 67 312 85T360 137T378 220V626H249V700H564V626H457V213Q457 162 442 121T397 51T329 6T240 -10Z" />
<glyph unicode="K" horiz-adv-x="700" d="M165 219L161 310L555 700H660L165 219ZM102 0V700H181V0H102ZM570 0L290 373L349 424L670 0H570Z" />
<glyph unicode="L" horiz-adv-x="577" d="M102 0V700H181V76H517V0H102Z" />
<glyph unicode="M" horiz-adv-x="856" d="M102 0V700H178L446 267L412 268L681 700H753V0H674V373Q674 445 677 504T689 623L703 597L451 202H402L156 592L167 623Q175 567 178 509T181 374V0H102Z" />
<glyph unicode="N" horiz-adv-x="772" d="M102 0V700H174L617 95L605 89Q600 121 597 163T593 263T591 393V700H670V0H597L155 597L167 606Q172 552 174 511T179 441T181 390T181 351V0H102Z" />
<glyph unicode="O" horiz-adv-x="787" d="M394 -10Q319 -10 257 17T148 92T76 205T51 349Q51 428 76 493T147 607T256 683T394 710Q468 710 531 683T640 608T711 493T737 350Q737 272 712 207T640 93T531 17T394 -10ZM394 67Q451 67 499 88T582 147T636 237T656
350Q656 411 637 462T582 552T499 612T394 633Q336 633 289 612T206 553T151 463T131 349Q131 268 165 204T258 104T394 67Z" />
<glyph unicode="P" horiz-adv-x="623" d="M102 0V700H376Q433 700 477 673T548 599T574 492Q574 431 548 382T478 304T376 275H181V0H102ZM181 352H376Q410 352 436 370T478 421T493 492Q493 530 478 559T437 606T376 624H181V352Z" />
<glyph unicode="Q" horiz-adv-x="787" d="M626 -99L365 244L430 288L689 -54L626 -99ZM394 -10Q319 -10 257 17T148 92T76 205T51 349Q51 428 76 493T147 607T256 683T394 710Q468 710 531 683T640 608T711 493T737 350Q737 272 712 207T640 93T531 17T394 -10ZM394
67Q451 67 499 88T582 147T636 237T656 350Q656 411 637 462T582 552T499 612T394 633Q336 633 289 612T206 553T151 463T131 349Q131 268 165 204T258 104T394 67Z" />
<glyph unicode="R" horiz-adv-x="666" d="M102 0V700H384Q443 700 490 673T565 597T593 487Q593 428 566 379T491 301T384 272H181V0H102ZM524 0L347 310L428 329L620 -1L524 0ZM181 349H393Q428 349 455 367T497 416T512 488Q512 528 495 558T446 606T374 624H181V349Z" />
<glyph unicode="S" horiz-adv-x="605" d="M310 -10Q223 -10 158 23T47 122L103 184Q148 118 198 90T318 62Q362 62 397 77T454 118T475 177Q475 199 468 217T445 249T406 275T354 296T287 315Q235 326 197 344T131 387T91 444T78 518Q78 574 109 617T194 685T315
710Q396 710 453 681T546 595L490 540Q458 587 415 612T313 638Q268 638 233 623T178 582T158 520Q158 495 167 475T196 439T245 412T316 391Q372 378 416 360T492 318T539 264T555 196Q555 134 525 88T439 16T310 -10Z" />
<glyph unicode="T" horiz-adv-x="546" d="M232 0V624H30V700H517V624H311V0H232Z" />
<glyph unicode="U" horiz-adv-x="741" d="M369 -6Q290 -6 228 29T131 127T95 269V701H174V278Q174 219 200 172T270 98T369 70Q427 70 472 97T544 172T570 278V701H646V269Q646 190 610 128T512 30T369 -6Z" />
<glyph unicode="V" horiz-adv-x="678" d="M298 0L23 700H113L304 208Q313 183 320 163T334 126T345 95T354 68H332Q337 85 343 105T359 150T380 208L562 700H655L378 0H298Z" />
<glyph unicode="W" horiz-adv-x="947" d="M237 0L23 700H107L244 239Q254 211 260 183T272 128T284 78H261Q277 130 287 160T303 209T316 242L440 559H509L630 242Q638 223 645 202T661 153T684 84L663 79Q669 108 672 124T678 151T683 171T689 197T703 241L839
700H924L710 0H652L464 459L477 456L294 0H237Z" />
<glyph unicode="X" horiz-adv-x="651" d="M527 0L298 326L28 700H129L350 382L628 0H527ZM23 0L288 375L337 318L117 0H23ZM362 334L313 389L524 700H618L362 334Z" />
<glyph unicode="Y" horiz-adv-x="637" d="M287 0V346L294 300L14 700H109L339 369L319 371L533 700H624L353 293L366 351V0H287Z" />
<glyph unicode="Z" horiz-adv-x="651" d="M60 0V60L488 639L502 624H86V700H583V641L157 61L145 76H594V0H60Z" />
<glyph unicode="[" horiz-adv-x="375" d="M78 -190V700H320V640H141L148 648V-142L138 -130H320V-190H78Z" />
<glyph unicode="\" horiz-adv-x="545" d="M441 -103L44 700H119L517 -103H441Z" />
<glyph unicode="]" horiz-adv-x="375" d="M55 -190V-130H235L227 -138V652L238 640H55V700H297V-190H55Z" />
<glyph unicode="^" horiz-adv-x="581" d="M36 368L254 727H328L545 368H460L284 658L299 660L121 368H36Z" />
<glyph unicode="_" horiz-adv-x="692" d="M54 -142V-82H638V-142H54Z" />
<glyph unicode="`" horiz-adv-x="500" d="M319 608L155 705L203 767L345 647L319 608Z" />
<glyph unicode="a" horiz-adv-x="535" d="M403 0V350Q403 401 367 432T272 463Q223 463 183 443T112 383L62 433Q107 484 160 509T277 534Q337 534 381 514T448 456T472 364V0H403ZM223 -10Q172 -10 132 10T69 65T45 149Q45 188 59 218T102 268T173 298T271 309H437L431
246H261Q226 246 200 240T155 222T127 192T117 150Q117 122 131 101T170 68T226 56Q267 56 303 70T367 110T413 168L434 120Q412 82 379 53T307 7T223 -10Z" />
<glyph unicode="b" horiz-adv-x="621" d="M336 -10Q300 -10 265 2T202 34T154 81T128 135L147 143V2H71V740H147V386L134 391Q140 420 158 445T204 491T265 522T333 534Q405 534 460 499T548 403T581 263Q581 185 549 123T461 26T336 -10ZM324 60Q377 60 418 86T484
159T508 263Q508 321 485 366T420 438T324 464Q272 464 232 438T168 367T144 263Q144 204 167 159T231 87T324 60Z" />
<glyph unicode="c" horiz-adv-x="532" d="M299 -10Q224 -10 166 26T74 123T40 263Q40 340 73 401T165 498T299 534Q367 534 422 508T509 434L465 382Q447 406 421 424T365 453T305 464Q250 464 207 438T138 367T113 263Q113 205 138 159T208 86T306 59Q337 59
365 68T418 96T465 140L508 87Q475 44 419 17T299 -10Z" />
<glyph unicode="d" horiz-adv-x="624" d="M292 -10Q219 -10 163 25T73 122T40 261Q40 340 73 401T162 498T289 534Q328 534 365 521T431 486T479 435T499 377H478V740H554V0H478V141L494 142Q491 112 473 85T428 37T365 3T292 -10ZM301 57Q353 57 393 83T457 156T480
262Q480 322 457 368T394 441T300 468Q247 468 206 441T141 368T117 261Q117 203 140 157T205 84T301 57Z" />
<glyph unicode="e" horiz-adv-x="572" d="M310 -10Q231 -10 170 24T75 120T40 259Q40 320 59 370T113 457T196 514T301 534Q351 534 394 516T470 465T519 386T534 285L533 247H95L79 309H470L456 292L457 317Q455 360 433 393T377 445T301 464Q243 464 201 440T138
371T115 264Q116 202 141 157T211 86T317 60Q360 60 397 74T472 123L510 69Q486 45 454 28T384 0T310 -10Z" />
<glyph unicode="f" horiz-adv-x="375" d="M133 0V598Q133 643 150 675T199 725T271 743Q305 743 331 731T373 699L345 642Q331 657 314 664T279 671Q257 671 241 664T217 641T209 598V0H172Q162 0 152 0T133 0ZM40 449V519H343V449H40Z" />
<glyph unicode="g" horiz-adv-x="634" d="M303 -233Q247 -233 195 -215T109 -167L137 -107Q167 -133 211 -149T302 -165Q358 -165 399 -143T463 -79T486 24V138L496 135Q489 96 460 63T388 10T298 -10Q224 -10 166 25T74 122T40 261Q40 340 73 401T165 498T294
534Q325 534 354 526T408 504T453 471T486 432T503 390L486 385L487 525H562V28Q562 -34 544 -82T491 -164T409 -215T303 -233ZM305 61Q358 61 399 86T465 157T489 262Q489 321 465 366T400 438T304 464Q250 464 208 438T141 366T117 261Q117 204 141 159T207 87T305
61Z" />
<glyph unicode="h" horiz-adv-x="577" d="M71 0V740H147V413L132 404Q143 439 172 468T242 516T327 534Q386 534 426 512T488 442T509 323V0H433V318Q433 369 419 402T376 450T304 464Q270 464 242 453T192 424T159 383T147 338V0H110Q101 0 91 0T71 0Z" />
<glyph unicode="i" horiz-adv-x="250" d="M88 0V525H164V0H88ZM125 648Q99 648 85 662T70 701Q70 725 84 739T125 754Q151 754 165 740T180 701Q180 678 166 663T125 648Z" />
<glyph unicode="j" horiz-adv-x="227" d="M-5 -196L-34 -136Q25 -136 52 -106T80 -18V525H156V-36Q156 -85 136 -120T80 -176T-5 -196ZM119 648Q93 648 79 662T64 701Q64 725 79 739T119 754Q145 754 159 740T174 701Q174 678 160 663T119 648Z" />
<glyph unicode="k" horiz-adv-x="537" d="M138 169L135 255L408 525H512L138 169ZM71 0V740H147V0H71ZM430 0L213 251L267 301L527 0H430Z" />
<glyph unicode="l" horiz-adv-x="236" d="M80 0V740H156V0H80Z" />
<glyph unicode="m" horiz-adv-x="906" d="M68 0V525H144L145 406L127 399Q139 429 158 453T202 495T257 523T318 533Q362 533 396 519T453 474T486 398H472L478 415Q490 441 509 462T554 500T608 524T665 533Q723 533 762 510T821 440T841 319V0H765V316Q765 392
735 427T642 462Q610 462 583 452T535 423T504 381T493 331V0H416V317Q416 390 385 426T296 462Q263 462 236 451T188 422T156 382T145 336V0H68Z" />
<glyph unicode="n" horiz-adv-x="577" d="M71 0V525H147V413L132 404Q143 439 172 468T242 515T327 534Q386 534 426 512T488 442T509 323V0H433V318Q433 369 419 402T376 450T304 464Q270 464 242 453T192 424T159 383T147 338V0H110Q101 0 91 0T71 0Z" />
<glyph unicode="o" horiz-adv-x="615" d="M308 -10Q231 -10 171 25T75 122T40 263Q40 342 75 403T170 499T308 534Q385 534 445 499T540 403T575 263Q575 184 541 123T446 26T308 -10ZM308 60Q363 60 406 86T474 159T498 263Q499 322 475 367T407 438T308 464Q253
464 210 438T141 367T117 263Q116 205 141 159T209 87T308 60Z" />
<glyph unicode="p" horiz-adv-x="621" d="M71 -223V525H147L148 386L134 391Q143 429 172 461T244 513T333 533Q405 533 461 498T549 402T581 263Q581 185 549 124T462 27T337 -9Q288 -9 244 11T168 64T129 135L148 143V-223H71ZM325 61Q378 61 419 87T484 159T508
263Q508 320 485 365T421 436T325 462Q273 462 233 437T169 366T145 262Q145 204 168 159T232 87T325 61Z" />
<glyph unicode="q" horiz-adv-x="623" d="M473 -223V141L490 142Q487 112 469 85T423 37T361 3T290 -10Q218 -10 162 25T73 122T40 261Q40 340 72 401T161 498T287 534Q326 534 362 521T428 485T475 435T496 377H473L474 526H549V-223H473ZM297 61Q349 61 389
86T452 157T476 262Q476 321 453 366T389 438T296 464Q243 464 202 438T137 366T113 261Q113 204 136 159T201 87T297 61Z" />
<glyph unicode="r" horiz-adv-x="372" d="M71 0V525H147L148 373L139 399Q149 435 173 466T233 515T310 534Q327 534 342 532T367 525L347 442Q333 447 319 450T291 454Q260 454 234 442T188 408T159 361T148 306V0H71Z" />
<glyph unicode="s" horiz-adv-x="479" d="M247 -10Q181 -10 128 13T42 81L94 126Q123 90 163 72T254 54Q280 54 300 60T334 78T354 105T361 139Q361 172 335 192Q321 202 297 211T237 230Q183 243 147 260T89 301Q73 319 65 340T57 388Q57 431 81 464T146 515T241
534Q277 534 312 524T378 495T430 449L386 401Q365 422 342 437T293 461T244 470Q218 470 197 465T162 449T140 424T133 390Q134 376 140 363T157 340Q171 329 197 319T260 300Q308 288 341 274T394 239Q415 221 424 197T433 142Q433 97 409 63T343 9T247 -10Z"
/>
<glyph unicode="t" horiz-adv-x="373" d="M146 0V659H222V0H146ZM25 451V525H353V451H25Z" />
<glyph unicode="u" horiz-adv-x="583" d="M259 -10Q201 -10 159 14T95 85T72 200V525H148V219Q148 140 184 99T287 57Q319 57 345 68T392 99T423 141T435 189V525H511V0H436L435 114L450 122Q438 86 410 56T343 8T259 -10Z" />
<glyph unicode="v" horiz-adv-x="538" d="M238 0L19 525H102L275 96L258 90L439 525H518L292 0H238Z" />
<glyph unicode="w" horiz-adv-x="781" d="M201 0L19 525L97 526L241 97L221 98L368 443H414L562 97L539 96L684 525H761L581 0H530L377 364L398 362L252 0H201Z" />
<glyph unicode="x" horiz-adv-x="533" d="M426 0L244 232L233 247L18 525H114L288 298L301 281L519 0H426ZM14 0L225 271L270 217L105 0H14ZM305 257L264 311L412 525H503L305 257Z" />
<glyph unicode="y" horiz-adv-x="554" d="M159 -230L261 13L264 -47L9 525H97L277 111Q283 99 288 84T298 54L277 48Q284 66 290 83T303 118L457 525H546L329 -4L241 -230H159Z" />
<glyph unicode="z" horiz-adv-x="466" d="M45 0V66L335 473L334 458H45V525H413V460L128 59L124 67H424V0H45Z" />
<glyph unicode="{" horiz-adv-x="408" d="M360 -195Q317 -186 285 -171T232 -133T200 -79T190 -7L191 88Q191 150 164 184T86 220H51V280H87Q138 281 164 315T191 412L190 507Q190 587 231 631T360 695L374 643Q330 630 305 613T269 567T258 493L260 398Q260 340
235 302T161 249L160 252Q210 235 235 197T260 102L258 7Q258 -37 268 -65T304 -111T374 -143L360 -195Z" />
<glyph unicode="|" horiz-adv-x="228" d="M78 -193V740H150V-193H78Z" />
<glyph unicode="}" horiz-adv-x="408" d="M48 -195L34 -143Q78 -130 103 -113T139 -67T150 7L148 102Q148 160 173 198T247 251L248 248Q198 265 173 303T148 398L150 493Q150 538 140 566T104 612T34 643L48 695Q91 686 123 671T176 633T208 579T218 507L217
412Q217 350 244 316T322 280H358V220H321Q270 219 244 185T217 88L218 -7Q218 -87 177 -131T48 -195Z" />
<glyph unicode="~" horiz-adv-x="510" d="M357 234Q340 234 318 240T275 254T240 268Q227 274 210 280T178 291T151 296Q132 296 120 281T108 237H52Q52 295 80 327T158 359Q176 359 197 353T238 339T276 323Q288 319 303 313T334 302T360 297Q378 297 390 310T401
349L457 347Q457 311 446 286T411 247T357 234Z" />
<glyph unicode="&#xa0;" horiz-adv-x="280" />
<glyph unicode="&#xa1;" horiz-adv-x="242" d="M139 289Q145 237 148 182T154 71T156 -35V-170H77V-35Q77 18 79 74T85 185T94 289H139ZM119 540Q147 540 161 524T176 478Q176 451 161 434T119 416Q92 416 78 432T63 478Q63 505 78 522T119 540Z" />
<glyph unicode="&#xa2;" horiz-adv-x="533" d="M301 78Q226 78 168 114T75 211T41 351Q41 428 75 489T167 586T301 621Q368 621 423 595T510 522L467 470Q449 494 423 512T367 542T308 553Q252 553 209 527T140 455T114 351Q114 293 140 247T209 174T308 147Q338
147 366 156T419 184T466 228L509 176Q476 133 420 106T301 78ZM254 0V101L258 128V576L254 608V700H326V608L321 581V126L326 100V0H254Z" />
<glyph unicode="&#xa3;" horiz-adv-x="610" d="M187 51L131 70Q153 83 169 120T186 201Q186 220 184 239T174 285T153 352Q141 391 135 416T127 458T124 492Q124 556 150 604T225 678T340 705Q405 705 451 683T522 620L467 578Q439 610 409 623T340 636Q299 636
267 617T216 566T198 491Q198 459 209 422T230 353Q241 319 250 285T260 217Q260 188 253 161T230 106T187 51ZM432 -15Q406 -15 373 -7T313 10Q299 14 279 19T239 29T209 33Q179 33 143 25T71 1L41 54Q77 75 120 87T209 99Q236 99 262 94T334 72Q358 65 383 58T432
50Q460 50 486 58T542 84L580 35Q551 11 513 -2T432 -15ZM49 333V397H447V333H49Z" />
<glyph unicode="&#xa4;" horiz-adv-x="554" d="M279 122Q230 122 190 146T125 211T101 302Q101 352 125 393T189 458T279 482Q328 482 368 458T433 392T457 302Q457 252 433 211T369 146T279 122ZM118 91L65 144L150 231L203 179L118 91ZM149 377L60 460L112 513L201
429L149 377ZM279 188Q311 188 335 203T373 243T387 302Q387 335 373 361T335 402T279 417Q248 417 224 402T186 361T172 302Q172 269 186 244T224 203T279 188ZM440 97L351 181L403 232L491 149L440 97ZM407 379L355 431L440 519L493 467L407 379Z" />
<glyph unicode="&#xa5;" horiz-adv-x="637" d="M287 0V346L294 300L14 700H109L339 369L319 371L533 700H624L353 293L366 351V0H287ZM141 110V174L528 173V109L141 110ZM141 253V318L528 317V252L141 253Z" />
<glyph unicode="&#xa6;" horiz-adv-x="234" d="M81 -202V198H153V-202H81ZM81 341V740H153V341H81Z" />
<glyph unicode="&#xa7;" horiz-adv-x="546" d="M334 142L318 187Q365 195 393 219T422 279Q422 307 404 324T351 351L216 395Q203 400 183 410T144 439T112 484T99 550Q99 596 121 632T185 688T285 708Q322 708 355 699T417 672T469 625L426 575Q408 596 385 610T336
631T282 639Q235 639 204 616T172 552Q172 534 180 518T208 488T255 465L365 429Q436 407 466 371T495 286Q493 242 472 211T416 163T334 142ZM278 -109Q239 -109 200 -99T125 -70T62 -26L101 32Q137 -1 184 -21T277 -42Q330 -42 362 -21T395 42Q395 60 385 75T356
103T311 123L185 165Q119 186 90 222T61 307Q61 347 79 378T132 430T211 454L225 402Q202 398 183 386T152 356T140 313Q140 284 160 265T221 234L333 197Q369 187 399 168T449 120T468 49Q468 2 446 -33T382 -89T278 -109Z" />
<glyph unicode="&#xa8;" horiz-adv-x="500" d="M342 649Q315 649 301 663T287 702Q287 725 301 740T342 755Q368 755 382 741T397 702Q397 678 382 664T342 649ZM158 649Q132 649 118 663T103 702Q103 725 118 740T158 755Q184 755 198 741T213 702Q213 678 199
664T158 649Z" />
<glyph unicode="&#xa9;" horiz-adv-x="786" d="M393 -7Q318 -7 253 20T140 96T64 210T36 350Q36 425 63 489T139 603T253 679T393 707Q467 707 531 680T645 603T722 490T750 350Q750 275 723 210T646 97T532 21T393 -7ZM407 142Q348 142 300 169T224 243T196 350Q196
407 224 454T300 529T407 557Q441 557 474 546T536 512L507 456Q482 474 458 485T407 496Q365 496 332 476T280 423T261 350Q261 308 280 275T332 222T407 203Q435 203 460 212T511 241L540 185Q510 164 476 153T407 142ZM393 49Q456 49 510 72T606 137T670 232T693
350Q693 414 670 468T606 563T511 627T393 651Q330 651 276 628T180 563T116 468T93 350Q93 287 116 233T180 137T275 73T393 49Z" />
<glyph unicode="&#xaa;" horiz-adv-x="365" d="M154 395Q114 395 84 416T37 475T20 562Q20 608 38 644T89 700T162 721Q209 721 238 692T271 609L258 647L259 715H327V402H258V475L271 503Q268 475 252 450T210 410T154 395ZM173 446Q212 446 236 474T261 557Q261
614 237 642T172 670Q137 670 113 639T88 562Q88 527 98 501T128 461T173 446Z" />
<glyph unicode="&#xab;" horiz-adv-x="474" d="M386 57L224 261V264L386 466L434 432L297 257L298 271L434 92L386 57ZM183 57L21 261V264L183 466L231 432L94 257L95 271L231 92L183 57Z" />
<glyph unicode="&#xac;" horiz-adv-x="670" d="M538 117V339L554 327H55V399H615V117H538Z" />
<glyph unicode="&#xad;" horiz-adv-x="394" d="M56 244V320H338V244H56Z" />
<glyph unicode="&#xae;" horiz-adv-x="513" d="M259 258Q195 258 143 288T60 370T29 484Q29 547 60 598T143 679T259 709Q306 709 347 692T421 643T471 572T489 484Q489 421 458 370T375 289T259 258ZM259 307Q309 307 350 330T415 394T440 484Q440 533 416 573T350
637T259 661Q209 661 168 638T102 574T77 484Q77 435 101 395T167 331T259 307ZM299 367L261 468L302 480L347 367H299ZM179 367V606H277Q311 606 331 586T352 533Q352 502 331 482T277 462H208L223 470V367H179ZM223 489L210 496H262Q283 496 295 505T308 530Q308
548 297 557T264 566H207L223 574V489Z" />
<glyph unicode="&#xaf;" horiz-adv-x="424" d="M111 649V707H389V649H111Z" />
<glyph unicode="&#xb0;" horiz-adv-x="532" d="M266 399Q222 399 187 419T131 475T110 553Q110 597 130 632T186 688T266 709Q311 709 346 689T401 633T422 554Q422 511 402 476T346 420T266 399ZM266 451Q293 451 315 465T351 502T365 554Q365 582 352 605T316
642T266 656Q239 656 216 643T180 606T167 553Q167 525 180 502T216 465T266 451Z" />
<glyph unicode="&#xb1;" horiz-adv-x="590" d="M55 306V372H535V306H55ZM55 22V91H535V22H55ZM257 157V531H334V157H257Z" />
<glyph unicode="&#xb2;" horiz-adv-x="346" d="M69 418L62 474L173 591Q184 603 197 617T218 647T227 679Q227 700 214 712T179 724Q158 724 137 711T95 667L53 697Q74 734 108 756T184 779Q230 779 259 753T289 685Q289 659 277 636T246 592T209 552L121 461L125
470H296V418H69Z" />
<glyph unicode="&#xb3;" horiz-adv-x="342" d="M168 412Q140 412 111 421T60 446L86 489Q109 474 127 469T163 463Q197 463 218 481T240 531Q240 557 221 573T171 590Q154 590 138 586T105 574L89 616L210 725L224 720H79V772H265L271 720L156 619L142 624Q155
632 165 635T185 638Q235 638 266 609T297 532Q297 498 280 471T234 428T168 412Z" />
<glyph unicode="&#xb4;" horiz-adv-x="500" d="M181 608L155 647L297 767L345 705L181 608Z" />
<glyph unicode="&#xb5;" horiz-adv-x="574" d="M77 -157V525H149V206Q149 158 163 125T206 74T277 57Q310 57 337 69T384 103T416 152T428 212V525H500V0H429L427 123L438 114Q424 71 398 44T337 3T267 -10Q237 -10 211 -1T165 30T139 83L149 76V-157H77Z" />
<glyph unicode="&#xb6;" horiz-adv-x="664" d="M263 0V307L283 279H239Q185 279 143 306T76 379T51 486Q51 551 79 599T157 673T276 700H562V0H483V670L497 624H309L342 665V0H263Z" />
<glyph unicode="&#xb7;" horiz-adv-x="228" d="M114 255Q87 255 73 270T58 315Q58 342 73 358T114 375Q141 375 155 360T170 315Q170 289 155 272T114 255Z" />
<glyph unicode="&#xb8;" horiz-adv-x="500" d="M166 -238L159 -198Q186 -196 213 -189T259 -168T278 -138Q278 -121 261 -113T223 -100T185 -96L172 -86L237 16H284L239 -54Q291 -62 316 -84T341 -139Q341 -165 325 -183T283 -214T226 -232T166 -238Z" />
<glyph unicode="&#xb9;" horiz-adv-x="281" d="M137 430V719L143 707L76 667L50 716L152 777H194V430H166Q159 430 152 430T137 430Z" />
<glyph unicode="&#xba;" horiz-adv-x="356" d="M177 392Q135 392 101 413T47 470T27 553Q27 600 47 637T101 696T178 717Q221 717 255 696T309 637T329 553Q329 507 310 471T255 413T177 392ZM177 446Q215 446 239 476T263 553Q263 601 239 632T177 663Q139 663
116 632T92 553Q92 507 116 477T177 446Z" />
<glyph unicode="&#xbb;" horiz-adv-x="491" d="M306 55L258 89L395 264L394 250L258 429L306 464L468 260V257L306 55ZM90 55L42 89L179 264L178 250L42 429L90 464L252 260V257L90 55Z" />
<glyph unicode="&#xbc;" horiz-adv-x="779" d="M145 360V649L151 637L84 597L58 646L160 707H202V360H174Q167 360 160 360T145 360ZM105 0L572 700H647L179 0H105ZM664 135H737V82H664V135ZM489 108L478 135H635L619 119V301L641 292L489 108ZM676 -1H619V97L631
82H459L446 133L625 356H676V-1Z" />
<glyph unicode="&#xbd;" horiz-adv-x="778" d="M145 360V649L151 637L84 597L58 646L160 707H202V360H174Q167 360 160 360T145 360ZM96 0L563 700H638L170 0H96ZM498 0L491 56L602 173Q613 185 626 199T647 229T656 261Q656 282 643 294T608 306Q587 306 566
293T524 249L482 279Q503 316 537 338T613 361Q659 361 688 335T718 267Q718 241 706 218T675 174T638 134L550 43L554 52H725V0H498Z" />
<glyph unicode="&#xbe;" horiz-adv-x="758" d="M128 342Q100 342 71 351T20 376L46 419Q69 404 87 399T123 393Q157 393 178 411T200 461Q200 487 181 503T131 520Q114 520 98 516T65 504L49 546L170 655L184 650H39V702H225L231 650L116 549L102 554Q115 562
125 565T145 568Q195 568 226 539T257 462Q257 428 240 401T194 358T128 342ZM104 0L571 700H646L178 0H104ZM643 135H716V82H643V135ZM468 108L457 135H614L598 119V301L620 292L468 108ZM655 -1H598V97L610 82H438L425 133L604 356H655V-1Z" />
<glyph unicode="&#xbf;" horiz-adv-x="487" d="M271 344L289 194Q240 182 204 165T144 126T108 77T96 19Q96 -15 111 -42T157 -86T228 -103Q262 -103 293 -91T349 -53T394 12L447 -32Q422 -78 388 -110T313 -158T223 -175Q161 -175 114 -151T41 -83T15 15Q15 64
39 107T104 183T201 233L213 344H271ZM298 485Q298 458 283 442T243 425Q217 425 203 440T189 485Q189 511 204 528T243 545Q270 545 284 530T298 485Z" />
<glyph unicode="&#xc0;" horiz-adv-x="670" d="M23 0L293 700H378L647 0H562L391 450Q388 457 380 481T361 537T340 596T324 640H343Q337 623 328 596T309 540T289 486T275 446L105 0H23ZM137 193L166 270H497L530 193H137ZM404 758L218 837L255 904L427 798L404 758Z" />
<glyph unicode="&#xc1;" horiz-adv-x="670" d="M23 0L293 700H378L647 0H562L391 450Q388 457 380 481T361 537T340 596T324 640H343Q337 623 328 596T309 540T289 486T275 446L105 0H23ZM137 193L166 270H497L530 193H137ZM272 758L250 798L422 904L458 837L272 758Z" />
<glyph unicode="&#xc2;" horiz-adv-x="670" d="M23 0L293 700H378L647 0H562L391 450Q388 457 380 481T361 537T340 596T324 640H343Q337 623 328 596T309 540T289 486T275 446L105 0H23ZM137 193L166 270H497L530 193H137ZM217 760L188 787L306 882H365L482 787L454
760L324 831H347L217 760Z" />
<glyph unicode="&#xc3;" horiz-adv-x="670" d="M23 0L293 700H378L647 0H562L391 450Q388 457 380 481T361 537T340 596T324 640H343Q337 623 328 596T309 540T289 486T275 446L105 0H23ZM137 193L166 270H497L530 193H137ZM404 774Q385 774 364 780T316 798Q303
804 290 809T265 814Q251 814 242 804T233 774H174Q174 820 203 845T269 871Q291 871 311 863T350 847Q368 839 380 836T400 832Q416 832 426 842T437 871H495Q495 845 484 823T452 787T404 774Z" />
<glyph unicode="&#xc4;" horiz-adv-x="670" d="M23 0L293 700H378L647 0H562L391 450Q388 457 380 481T361 537T340 596T324 640H343Q337 623 328 596T309 540T289 486T275 446L105 0H23ZM137 193L166 270H497L530 193H137ZM429 770Q401 770 388 784T374 822Q374
842 387 858T429 874Q457 874 470 860T484 822Q484 802 471 786T429 770ZM241 770Q215 770 201 784T186 822Q186 842 200 858T241 874Q270 874 283 860T296 822Q296 802 283 786T241 770Z" />
<glyph unicode="&#xc5;" horiz-adv-x="670" d="M23 0L293 700H378L647 0H562L391 450Q388 457 380 481T361 537T340 596T324 640H343Q337 623 328 596T309 540T289 486T275 446L105 0H23ZM137 193L166 270H497L530 193H137ZM335 683Q308 683 285 696T247 732T232
781Q232 810 246 832T284 869T335 883Q363 883 386 869T424 833T439 781Q439 755 425 733T387 697T335 683ZM335 728Q359 728 375 744T392 782Q392 808 376 822T335 837Q312 837 296 822T279 782Q279 760 295 744T335 728Z" />
<glyph unicode="&#xc6;" horiz-adv-x="955" d="M3 0L487 700H883V631H546V392H834V322H546V69H883V0H472V174H191L238 242H472V603L491 596L85 0H3Z" />
<glyph unicode="&#xc7;" horiz-adv-x="683" d="M388 -10Q314 -10 253 16T146 90T76 204T51 349Q51 425 77 490T149 604T258 680T394 707Q446 707 493 692T580 651T647 588L593 533Q550 579 500 603T394 628Q338 628 290 607T207 549T151 461T131 349Q131 286 151
235T206 147T291 90T400 70Q437 70 472 79T537 107T592 149L633 84Q608 57 569 36T484 2T388 -10ZM292 -238L286 -198Q312 -196 339 -189T385 -168T404 -138Q404 -121 388 -113T350 -100T311 -96L298 -86L364 16H411L366 -54Q418 -62 443 -84T468 -139Q468 -165
452 -183T410 -214T353 -232T292 -238Z" />
<glyph unicode="&#xc8;" horiz-adv-x="598" d="M102 0V700H526V624H181V76H524V0H102ZM139 322V398H470V322H139ZM391 758L205 837L242 904L414 798L391 758Z" />
<glyph unicode="&#xc9;" horiz-adv-x="598" d="M102 0V700H526V624H181V76H524V0H102ZM139 322V398H470V322H139ZM259 758L237 798L409 904L445 837L259 758Z" />
<glyph unicode="&#xca;" horiz-adv-x="598" d="M102 0V700H526V624H181V76H524V0H102ZM139 322V398H470V322H139ZM204 760L175 787L293 882H352L469 787L441 760L311 831H334L204 760Z" />
<glyph unicode="&#xcb;" horiz-adv-x="598" d="M102 0V700H526V624H181V76H524V0H102ZM139 322V398H470V322H139ZM416 770Q388 770 375 784T361 822Q361 842 374 858T416 874Q444 874 457 860T471 822Q471 802 458 786T416 770ZM228 770Q202 770 188 784T173 822Q173
842 187 858T228 874Q257 874 270 860T283 822Q283 802 270 786T228 770Z" />
<glyph unicode="&#xcc;" horiz-adv-x="447" d="M65 0V74H184V626H65V700H383V626H263V74H383V0H65ZM548 758L362 837L399 904L571 798L548 758Z" />
<glyph unicode="&#xcd;" horiz-adv-x="447" d="M65 0V74H184V626H65V700H383V626H263V74H383V0H65ZM417 758L395 798L567 904L603 837L417 758Z" />
<glyph unicode="&#xce;" horiz-adv-x="447" d="M65 0V74H184V626H65V700H383V626H263V74H383V0H65ZM361 760L332 787L450 882H509L626 787L598 760L468 831H491L361 760Z" />
<glyph unicode="&#xcf;" horiz-adv-x="447" d="M65 0V74H184V626H65V700H383V626H263V74H383V0H65ZM574 770Q546 770 533 784T519 822Q519 842 532 858T574 874Q602 874 615 860T629 822Q629 802 616 786T574 770ZM386 770Q360 770 346 784T331 822Q331 842 345
858T386 874Q415 874 428 860T441 822Q441 802 428 786T386 770Z" />
<glyph unicode="&#xd0;" horiz-adv-x="745" d="M41 316V383H309V316H41ZM102 0V700H367Q438 700 498 675T602 603T670 492T694 350Q694 273 670 209T603 98T499 26T367 0H102ZM181 66L176 76H362Q417 76 463 96T543 151T595 238T613 350Q613 411 595 461T543 548T463
604T362 624H174L181 633V66Z" />
<glyph unicode="&#xd1;" horiz-adv-x="772" d="M102 0V700H174L617 95L605 89Q600 121 597 163T593 263T591 393V700H670V0H597L155 597L167 606Q172 552 174 511T179 441T181 390T181 351V0H102ZM456 774Q437 774 416 780T368 798Q355 804 342 809T317 814Q303
814 294 804T285 774H226Q226 820 255 845T321 871Q343 871 363 863T402 847Q420 839 432 836T452 832Q468 832 478 842T489 871H547Q547 845 536 823T504 787T456 774Z" />
<glyph unicode="&#xd2;" horiz-adv-x="787" d="M394 -10Q319 -10 257 17T148 92T76 205T51 349Q51 428 76 493T147 607T256 683T394 710Q468 710 531 683T640 608T711 493T737 350Q737 272 712 207T640 93T531 17T394 -10ZM394 67Q451 67 499 88T582 147T636 237T656
350Q656 411 637 462T582 552T499 612T394 633Q336 633 289 612T206 553T151 463T131 349Q131 268 165 204T258 104T394 67ZM462 758L276 837L313 904L485 798L462 758Z" />
<glyph unicode="&#xd3;" horiz-adv-x="787" d="M394 -10Q319 -10 257 17T148 92T76 205T51 349Q51 428 76 493T147 607T256 683T394 710Q468 710 531 683T640 608T711 493T737 350Q737 272 712 207T640 93T531 17T394 -10ZM394 67Q451 67 499 88T582 147T636 237T656
350Q656 411 637 462T582 552T499 612T394 633Q336 633 289 612T206 553T151 463T131 349Q131 268 165 204T258 104T394 67ZM331 758L309 798L481 904L517 837L331 758Z" />
<glyph unicode="&#xd4;" horiz-adv-x="787" d="M394 -10Q319 -10 257 17T148 92T76 205T51 349Q51 428 76 493T147 607T256 683T394 710Q468 710 531 683T640 608T711 493T737 350Q737 272 712 207T640 93T531 17T394 -10ZM394 67Q451 67 499 88T582 147T636 237T656
350Q656 411 637 462T582 552T499 612T394 633Q336 633 289 612T206 553T151 463T131 349Q131 268 165 204T258 104T394 67ZM275 760L246 787L364 882H423L540 787L512 760L382 831H405L275 760Z" />
<glyph unicode="&#xd5;" horiz-adv-x="787" d="M394 -10Q319 -10 257 17T148 92T76 205T51 349Q51 428 76 493T147 607T256 683T394 710Q468 710 531 683T640 608T711 493T737 350Q737 272 712 207T640 93T531 17T394 -10ZM394 67Q451 67 499 88T582 147T636 237T656
350Q656 411 637 462T582 552T499 612T394 633Q336 633 289 612T206 553T151 463T131 349Q131 268 165 204T258 104T394 67ZM463 774Q444 774 423 780T375 798Q362 804 349 809T324 814Q310 814 301 804T292 774H233Q233 820 262 845T328 871Q350 871 370 863T409
847Q427 839 439 836T459 832Q475 832 485 842T496 871H554Q554 845 543 823T511 787T463 774Z" />
<glyph unicode="&#xd6;" horiz-adv-x="787" d="M394 -10Q319 -10 257 17T148 92T76 205T51 349Q51 428 76 493T147 607T256 683T394 710Q468 710 531 683T640 608T711 493T737 350Q737 272 712 207T640 93T531 17T394 -10ZM394 67Q451 67 499 88T582 147T636 237T656
350Q656 411 637 462T582 552T499 612T394 633Q336 633 289 612T206 553T151 463T131 349Q131 268 165 204T258 104T394 67ZM488 770Q460 770 447 784T433 822Q433 842 446 858T488 874Q516 874 529 860T543 822Q543 802 530 786T488 770ZM300 770Q274 770 260
784T245 822Q245 842 259 858T300 874Q329 874 342 860T355 822Q355 802 342 786T300 770Z" />
<glyph unicode="&#xd7;" horiz-adv-x="470" d="M386 88L40 433L88 477L434 132L386 88ZM84 83L39 132L384 477L430 429L84 83Z" />
<glyph unicode="&#xd8;" horiz-adv-x="779" d="M120 -28L72 12L661 734L712 698L120 -28ZM393 -10Q318 -10 256 17T147 92T75 205T50 349Q50 428 75 493T146 607T255 683T393 710Q467 710 530 683T639 608T710 493T736 350Q736 272 711 207T639 93T530 17T393
-10ZM393 67Q450 67 498 88T581 147T635 237T655 350Q655 411 636 462T581 552T498 612T393 633Q335 633 288 612T205 553T150 463T130 349Q130 268 164 204T257 104T393 67Z" />
<glyph unicode="&#xd9;" horiz-adv-x="741" d="M369 -6Q290 -6 228 29T131 127T95 269V701H174V278Q174 219 200 172T270 98T369 70Q427 70 472 97T544 172T570 278V701H646V269Q646 190 610 128T512 30T369 -6ZM439 758L253 837L290 904L462 798L439 758Z" />
<glyph unicode="&#xda;" horiz-adv-x="741" d="M369 -6Q290 -6 228 29T131 127T95 269V701H174V278Q174 219 200 172T270 98T369 70Q427 70 472 97T544 172T570 278V701H646V269Q646 190 610 128T512 30T369 -6ZM308 758L286 798L458 904L494 837L308 758Z" />
<glyph unicode="&#xdb;" horiz-adv-x="741" d="M369 -6Q290 -6 228 29T131 127T95 269V701H174V278Q174 219 200 172T270 98T369 70Q427 70 472 97T544 172T570 278V701H646V269Q646 190 610 128T512 30T369 -6ZM252 760L223 787L341 882H400L517 787L489 760L359
831H382L252 760Z" />
<glyph unicode="&#xdc;" horiz-adv-x="741" d="M369 -6Q290 -6 228 29T131 127T95 269V701H174V278Q174 219 200 172T270 98T369 70Q427 70 472 97T544 172T570 278V701H646V269Q646 190 610 128T512 30T369 -6ZM465 770Q437 770 424 784T410 822Q410 842 423
858T465 874Q493 874 506 860T520 822Q520 802 507 786T465 770ZM277 770Q251 770 237 784T222 822Q222 842 236 858T277 874Q306 874 319 860T332 822Q332 802 319 786T277 770Z" />
<glyph unicode="&#xdd;" horiz-adv-x="637" d="M287 0V346L294 300L14 700H109L339 369L319 371L533 700H624L353 293L366 351V0H287ZM256 758L234 798L406 904L442 837L256 758Z" />
<glyph unicode="&#xde;" horiz-adv-x="611" d="M102 0V700H181V563H365Q420 563 465 537T536 464T563 358Q563 301 537 254T465 179T365 151H181V0H102ZM181 228H363Q398 228 425 246T467 294T483 358Q483 395 468 424T426 470T363 487H181V228Z" />
<glyph unicode="&#xdf;" horiz-adv-x="645" d="M399 -10Q347 -10 310 9T244 68L286 108Q314 75 341 62T401 49Q458 49 492 85T526 189Q526 240 505 280T440 348T329 395V446Q360 455 384 467T424 495T448 530T457 569Q457 612 425 638T337 665Q272 665 234 622T196
499V0H125V497Q125 570 151 622T225 703T338 732Q397 732 439 712T505 656T528 575Q528 542 512 513T467 463T402 432L400 439Q466 418 510 382T576 299T599 197Q599 135 574 89T505 17T399 -10ZM40 408V477H163V408H40Z" />
<glyph unicode="&#xe0;" horiz-adv-x="535" d="M403 0V350Q403 401 367 432T272 463Q223 463 183 443T112 383L62 433Q107 484 160 509T277 534Q337 534 381 514T448 456T472 364V0H403ZM223 -10Q172 -10 132 10T69 65T45 149Q45 188 59 218T102 268T173 298T271
309H437L431 246H261Q226 246 200 240T155 222T127 192T117 150Q117 122 131 101T170 68T226 56Q267 56 303 70T367 110T413 168L434 120Q412 82 379 53T307 7T223 -10ZM573 608L409 705L457 767L599 647L573 608Z" />
<glyph unicode="&#xe1;" horiz-adv-x="535" d="M403 0V350Q403 401 367 432T272 463Q223 463 183 443T112 383L62 433Q107 484 160 509T277 534Q337 534 381 514T448 456T472 364V0H403ZM223 -10Q172 -10 132 10T69 65T45 149Q45 188 59 218T102 268T173 298T271
309H437L431 246H261Q226 246 200 240T155 222T127 192T117 150Q117 122 131 101T170 68T226 56Q267 56 303 70T367 110T413 168L434 120Q412 82 379 53T307 7T223 -10ZM205 608L179 647L321 767L369 705L205 608Z" />
<glyph unicode="&#xe2;" horiz-adv-x="535" d="M403 0V350Q403 401 367 432T272 463Q223 463 183 443T112 383L62 433Q107 484 160 509T277 534Q337 534 381 514T448 456T472 364V0H403ZM223 -10Q172 -10 132 10T69 65T45 149Q45 188 59 218T102 268T173 298T271
309H437L431 246H261Q226 246 200 240T155 222T127 192T117 150Q117 122 131 101T170 68T226 56Q267 56 303 70T367 110T413 168L434 120Q412 82 379 53T307 7T223 -10ZM152 612L122 638L235 744H301L414 638L384 612L256 691H280L152 612Z" />
<glyph unicode="&#xe3;" horiz-adv-x="535" d="M403 0V350Q403 401 367 432T272 463Q223 463 183 443T112 383L62 433Q107 484 160 509T277 534Q337 534 381 514T448 456T472 364V0H403ZM223 -10Q172 -10 132 10T69 65T45 149Q45 188 59 218T102 268T173 298T271
309H437L431 246H261Q226 246 200 240T155 222T127 192T117 150Q117 122 131 101T170 68T226 56Q267 56 303 70T367 110T413 168L434 120Q412 82 379 53T307 7T223 -10ZM324 621Q303 621 288 630T257 652Q236 669 226 674T208 680Q195 680 184 666T170 623L118
631Q119 674 145 705T212 736Q232 736 247 727T279 704Q294 692 305 684T327 676Q342 676 352 690T365 733L417 726Q417 697 405 673T372 635T324 621Z" />
<glyph unicode="&#xe4;" horiz-adv-x="535" d="M403 0V350Q403 401 367 432T272 463Q223 463 183 443T112 383L62 433Q107 484 160 509T277 534Q337 534 381 514T448 456T472 364V0H403ZM223 -10Q172 -10 132 10T69 65T45 149Q45 188 59 218T102 268T173 298T271
309H437L431 246H261Q226 246 200 240T155 222T127 192T117 150Q117 122 131 101T170 68T226 56Q267 56 303 70T367 110T413 168L434 120Q412 82 379 53T307 7T223 -10ZM360 649Q333 649 319 663T305 702Q305 725 319 740T360 755Q386 755 400 741T415 702Q415
678 400 664T360 649ZM176 649Q150 649 136 663T121 702Q121 725 136 740T176 755Q202 755 216 741T231 702Q231 678 217 664T176 649Z" />
<glyph unicode="&#xe5;" horiz-adv-x="535" d="M403 0V350Q403 401 367 432T272 463Q223 463 183 443T112 383L62 433Q107 484 160 509T277 534Q337 534 381 514T448 456T472 364V0H403ZM223 -10Q172 -10 132 10T69 65T45 149Q45 188 59 218T102 268T173 298T271
309H437L431 246H261Q226 246 200 240T155 222T127 192T117 150Q117 122 131 101T170 68T226 56Q267 56 303 70T367 110T413 168L434 120Q412 82 379 53T307 7T223 -10ZM267 601Q240 601 217 614T179 651T164 700Q164 728 178 750T216 787T267 801Q296 801 319
787T357 751T371 700Q371 674 357 651T319 615T267 601ZM267 646Q291 646 307 662T324 700Q324 725 308 740T267 755Q243 755 227 740T211 700Q211 679 227 663T267 646Z" />
<glyph unicode="&#xe6;" horiz-adv-x="921" d="M223 -10Q173 -10 133 10T69 65T45 149Q45 188 59 218T102 268T173 298T271 309H820L806 292V316Q804 359 783 392T727 444T651 463Q595 463 555 439T494 371T472 264Q472 205 498 159T571 86T676 60Q719 60 756
74T830 123L868 68Q844 45 812 28T743 0T669 -10Q590 -10 530 24T437 119T403 259Q403 318 421 368T473 455T551 512T649 533Q717 533 770 502T853 415T883 285L882 246H261Q226 246 200 240T155 222T127 192T117 150Q117 122 131 101T171 68T226 56Q268 56 305
71T371 112T417 171L451 120Q427 82 392 53T314 7T223 -10ZM403 264V360Q403 383 393 401T366 434T324 455T272 463Q223 463 183 443T111 383L61 432Q104 482 157 508T273 534Q319 534 355 524T418 494T458 446T472 380V267L403 264Z" />
<glyph unicode="&#xe7;" horiz-adv-x="532" d="M299 -10Q224 -10 166 26T74 123T40 263Q40 340 73 401T165 498T299 534Q367 534 422 508T509 434L465 382Q447 406 421 424T365 453T305 464Q250 464 207 438T138 367T113 263Q113 205 138 159T208 86T306 59Q337
59 365 68T418 96T465 140L508 87Q475 44 419 17T299 -10ZM212 -238L205 -198Q232 -196 259 -189T305 -168T324 -138Q324 -121 307 -113T269 -100T231 -96L218 -86L283 16H330L285 -54Q337 -62 362 -84T387 -139Q387 -165 371 -183T329 -214T272 -232T212 -238Z"
/>
<glyph unicode="&#xe8;" horiz-adv-x="572" d="M310 -10Q231 -10 170 24T75 120T40 259Q40 320 59 370T113 457T196 514T301 534Q351 534 394 516T470 465T519 386T534 285L533 247H95L79 309H470L456 292L457 317Q455 360 433 393T377 445T301 464Q243 464 201
440T138 371T115 264Q116 202 141 157T211 86T317 60Q360 60 397 74T472 123L510 69Q486 45 454 28T384 0T310 -10ZM350 608L186 705L234 767L376 647L350 608Z" />
<glyph unicode="&#xe9;" horiz-adv-x="572" d="M310 -10Q231 -10 170 24T75 120T40 259Q40 320 59 370T113 457T196 514T301 534Q351 534 394 516T470 465T519 386T534 285L533 247H95L79 309H470L456 292L457 317Q455 360 433 393T377 445T301 464Q243 464 201
440T138 371T115 264Q116 202 141 157T211 86T317 60Q360 60 397 74T472 123L510 69Q486 45 454 28T384 0T310 -10ZM238 608L212 647L354 767L402 705L238 608Z" />
<glyph unicode="&#xea;" horiz-adv-x="572" d="M310 -10Q231 -10 170 24T75 120T40 259Q40 320 59 370T113 457T196 514T301 534Q351 534 394 516T470 465T519 386T534 285L533 247H95L79 309H470L456 292L457 317Q455 360 433 393T377 445T301 464Q243 464 201
440T138 371T115 264Q116 202 141 157T211 86T317 60Q360 60 397 74T472 123L510 69Q486 45 454 28T384 0T310 -10ZM185 612L155 638L268 744H334L447 638L417 612L289 691H313L185 612Z" />
<glyph unicode="&#xeb;" horiz-adv-x="572" d="M310 -10Q231 -10 170 24T75 120T40 259Q40 320 59 370T113 457T196 514T301 534Q351 534 394 516T470 465T519 386T534 285L533 247H95L79 309H470L456 292L457 317Q455 360 433 393T377 445T301 464Q243 464 201
440T138 371T115 264Q116 202 141 157T211 86T317 60Q360 60 397 74T472 123L510 69Q486 45 454 28T384 0T310 -10ZM393 649Q366 649 352 663T338 702Q338 725 352 740T393 755Q419 755 433 741T448 702Q448 678 433 664T393 649ZM209 649Q183 649 169 663T154
702Q154 725 169 740T209 755Q235 755 249 741T264 702Q264 678 250 664T209 649Z" />
<glyph unicode="&#xec;" horiz-adv-x="216" d="M70 0V525H146V0H70ZM156 608L-8 705L40 767L182 647L156 608Z" />
<glyph unicode="&#xed;" horiz-adv-x="216" d="M70 0V525H146V0H70ZM44 608L18 647L160 767L208 705L44 608Z" />
<glyph unicode="&#xee;" horiz-adv-x="216" d="M70 0V525H146V0H70ZM-9 612L-39 638L74 744H140L253 638L223 612L95 691H119L-9 612Z" />
<glyph unicode="&#xef;" horiz-adv-x="216" d="M70 0V525H146V0H70ZM199 649Q172 649 158 663T144 702Q144 725 158 740T199 755Q225 755 239 741T254 702Q254 678 239 664T199 649ZM15 649Q-11 649 -25 663T-40 702Q-40 725 -25 740T15 755Q41 755 55 741T70
702Q70 678 56 664T15 649Z" />
<glyph unicode="&#xf0;" horiz-adv-x="575" d="M287 -8Q217 -8 161 27T73 124T40 262Q40 318 59 366T111 451T188 507T281 528Q332 528 375 505T446 443T482 355L446 376Q444 435 426 484T374 571T292 636T180 681L211 740Q270 726 320 698T410 629T478 535T520
416T535 274Q535 192 503 128T415 28T287 -8ZM287 63Q338 63 377 89T439 160T462 262Q462 318 440 361T378 431T287 457Q238 457 198 432T135 362T112 262Q112 205 135 160T198 89T287 63ZM159 543L149 594L313 637L354 651L488 683L502 632L394 606L362 594L159
543Z" />
<glyph unicode="&#xf1;" horiz-adv-x="577" d="M71 0V525H147V413L132 404Q143 439 172 468T242 515T327 534Q386 534 426 512T488 442T509 323V0H433V318Q433 369 419 402T376 450T304 464Q270 464 242 453T192 424T159 383T147 338V0H110Q101 0 91 0T71 0ZM367
621Q346 621 331 630T300 652Q279 669 269 674T251 680Q238 680 227 666T213 623L161 631Q162 674 188 705T255 736Q275 736 290 727T322 704Q337 692 348 684T370 676Q385 676 395 690T408 733L460 726Q460 697 448 673T415 635T367 621Z" />
<glyph unicode="&#xf2;" horiz-adv-x="615" d="M308 -10Q231 -10 171 25T75 122T40 263Q40 342 75 403T170 499T308 534Q385 534 445 499T540 403T575 263Q575 184 541 123T446 26T308 -10ZM308 60Q363 60 406 86T474 159T498 263Q499 322 475 367T407 438T308
464Q253 464 210 438T141 367T117 263Q116 205 141 159T209 87T308 60ZM357 608L193 705L241 767L383 647L357 608Z" />
<glyph unicode="&#xf3;" horiz-adv-x="615" d="M308 -10Q231 -10 171 25T75 122T40 263Q40 342 75 403T170 499T308 534Q385 534 445 499T540 403T575 263Q575 184 541 123T446 26T308 -10ZM308 60Q363 60 406 86T474 159T498 263Q499 322 475 367T407 438T308
464Q253 464 210 438T141 367T117 263Q116 205 141 159T209 87T308 60ZM246 608L220 647L362 767L410 705L246 608Z" />
<glyph unicode="&#xf4;" horiz-adv-x="615" d="M308 -10Q231 -10 171 25T75 122T40 263Q40 342 75 403T170 499T308 534Q385 534 445 499T540 403T575 263Q575 184 541 123T446 26T308 -10ZM308 60Q363 60 406 86T474 159T498 263Q499 322 475 367T407 438T308
464Q253 464 210 438T141 367T117 263Q116 205 141 159T209 87T308 60ZM192 612L162 638L275 744H341L454 638L424 612L296 691H320L192 612Z" />
<glyph unicode="&#xf5;" horiz-adv-x="615" d="M308 -10Q231 -10 171 25T75 122T40 263Q40 342 75 403T170 499T308 534Q385 534 445 499T540 403T575 263Q575 184 541 123T446 26T308 -10ZM308 60Q363 60 406 86T474 159T498 263Q499 322 475 367T407 438T308
464Q253 464 210 438T141 367T117 263Q116 205 141 159T209 87T308 60ZM364 621Q343 621 328 630T297 652Q276 669 266 674T248 680Q235 680 224 666T210 623L158 631Q159 674 185 705T252 736Q272 736 287 727T319 704Q334 692 345 684T367 676Q382 676 392 690T405
733L457 726Q457 697 445 673T412 635T364 621Z" />
<glyph unicode="&#xf6;" horiz-adv-x="615" d="M308 -10Q231 -10 171 25T75 122T40 263Q40 342 75 403T170 499T308 534Q385 534 445 499T540 403T575 263Q575 184 541 123T446 26T308 -10ZM308 60Q363 60 406 86T474 159T498 263Q499 322 475 367T407 438T308
464Q253 464 210 438T141 367T117 263Q116 205 141 159T209 87T308 60ZM400 649Q373 649 359 663T345 702Q345 725 359 740T400 755Q426 755 440 741T455 702Q455 678 440 664T400 649ZM216 649Q190 649 176 663T161 702Q161 725 176 740T216 755Q242 755 256 741T271
702Q271 678 257 664T216 649Z" />
<glyph unicode="&#xf7;" horiz-adv-x="594" d="M52 239V306H541V239H52ZM293 50Q279 50 267 57T247 76T240 103Q240 117 247 129T266 148T293 156Q308 156 320 149T339 129T346 103Q346 89 339 77T320 58T293 50ZM293 387Q278 387 266 394T247 414T240 440Q240
454 247 466T266 485T293 493Q308 493 320 486T339 466T346 440Q346 426 339 414T319 395T293 387Z" />
<glyph unicode="&#xf8;" horiz-adv-x="615" d="M98 -29L49 7L505 542L555 505L98 -29ZM308 -10Q231 -10 171 25T75 122T40 263Q40 342 75 403T170 499T308 534Q385 534 445 499T540 403T575 263Q575 184 541 123T446 26T308 -10ZM308 60Q363 60 406 86T474 159T498
263Q499 322 475 367T407 438T308 464Q253 464 210 438T141 367T117 263Q116 205 141 159T209 87T308 60Z" />
<glyph unicode="&#xf9;" horiz-adv-x="583" d="M259 -10Q201 -10 159 14T95 85T72 200V525H148V219Q148 140 184 99T287 57Q319 57 345 68T392 99T423 141T435 189V525H511V0H436L435 114L450 122Q438 86 410 56T343 8T259 -10ZM341 608L177 705L225 767L367 647L341
608Z" />
<glyph unicode="&#xfa;" horiz-adv-x="583" d="M259 -10Q201 -10 159 14T95 85T72 200V525H148V219Q148 140 184 99T287 57Q319 57 345 68T392 99T423 141T435 189V525H511V0H436L435 114L450 122Q438 86 410 56T343 8T259 -10ZM229 608L203 647L345 767L393 705L229
608Z" />
<glyph unicode="&#xfb;" horiz-adv-x="583" d="M259 -10Q201 -10 159 14T95 85T72 200V525H148V219Q148 140 184 99T287 57Q319 57 345 68T392 99T423 141T435 189V525H511V0H436L435 114L450 122Q438 86 410 56T343 8T259 -10ZM176 612L146 638L259 744H325L438
638L408 612L280 691H304L176 612Z" />
<glyph unicode="&#xfc;" horiz-adv-x="583" d="M259 -10Q201 -10 159 14T95 85T72 200V525H148V219Q148 140 184 99T287 57Q319 57 345 68T392 99T423 141T435 189V525H511V0H436L435 114L450 122Q438 86 410 56T343 8T259 -10ZM384 649Q357 649 343 663T329 702Q329
725 343 740T384 755Q410 755 424 741T439 702Q439 678 424 664T384 649ZM200 649Q174 649 160 663T145 702Q145 725 160 740T200 755Q226 755 240 741T255 702Q255 678 241 664T200 649Z" />
<glyph unicode="&#xfd;" horiz-adv-x="554" d="M159 -230L261 13L264 -47L9 525H97L277 111Q283 99 288 84T298 54L277 48Q284 66 290 83T303 118L457 525H546L329 -4L241 -230H159ZM215 608L189 647L331 767L379 705L215 608Z" />
<glyph unicode="&#xfe;" horiz-adv-x="624" d="M71 -223V740H148V387L135 393Q144 431 174 462T247 513T338 533Q408 533 463 498T551 402T584 262Q584 184 553 123T466 26T339 -9Q289 -9 245 10T169 62T128 133L148 142V-223H71ZM326 61Q380 61 422 87T488 158T512
262Q512 320 488 365T422 436T326 462Q273 462 232 437T167 366T143 262Q143 204 167 159T233 87T326 61Z" />
<glyph unicode="&#xff;" horiz-adv-x="554" d="M159 -230L261 13L264 -47L9 525H97L277 111Q283 99 288 84T298 54L277 48Q284 66 290 83T303 118L457 525H546L329 -4L241 -230H159ZM369 649Q342 649 328 663T314 702Q314 725 328 740T369 755Q395 755 409 741T424
702Q424 678 409 664T369 649ZM185 649Q159 649 145 663T130 702Q130 725 145 740T185 755Q211 755 225 741T240 702Q240 678 226 664T185 649Z" />
<glyph unicode="&#x2013;" horiz-adv-x="514" d="M53 252V326H461V252H53Z" />
<glyph unicode="&#x2014;" horiz-adv-x="868" d="M53 253V327H815V253H53Z" />
<glyph unicode="&#x2018;" horiz-adv-x="239" d="M135 511Q111 511 93 523T64 556T54 607Q54 629 61 649T84 689T121 725T170 753L198 719Q166 700 145 678T124 640Q124 626 134 618T154 602Q171 589 178 579T185 555Q185 536 172 524T135 511Z" />
<glyph unicode="&#x2019;" horiz-adv-x="239" d="M69 508L41 542Q73 561 94 583T115 621Q115 635 105 644T85 659Q67 672 61 682T54 705Q54 726 67 738T104 750Q128 750 146 738T175 705T185 655Q185 633 177 612T154 571T118 536T69 508Z" />
<glyph unicode="&#x201a;" horiz-adv-x="250" d="M87 -160L59 -126Q89 -105 107 -81T126 -40Q126 -28 121 -20T100 1Q84 16 78 27T72 51Q72 71 86 83T123 96Q144 96 161 84T187 51T197 0Q197 -26 190 -49T168 -92T133 -129T87 -160Z" />
<glyph unicode="&#x201c;" horiz-adv-x="413" d="M135 762Q111 762 93 774T64 807T54 858Q54 880 61 900T84 940T121 976T170 1004L198 970Q166 951 145 929T124 891Q124 877 134 869T154 853Q171 840 178 830T185 806Q185 787 172 775T135 762ZM308 506Q284 506
266 518T237 551T227 602Q227 624 234 644T257 684T294 720T343 748L371 714Q339 695 318 673T297 635Q297 621 307 613T327 597Q344 584 351 574T358 550Q358 531 345 519T308 506Z" />
<glyph unicode="&#x201d;" horiz-adv-x="408" d="M69 508L41 542Q73 561 94 583T115 621Q115 635 105 644T85 659Q67 672 61 682T54 705Q54 726 67 738T104 750Q128 750 146 738T175 705T185 655Q185 633 177 612T154 571T118 536T69 508ZM238 508L210 542Q242
561 263 583T284 621Q284 635 274 644T254 659Q236 672 230 682T223 705Q223 726 236 738T273 750Q297 750 315 738T344 705T354 655Q354 633 346 612T323 571T287 536T238 508Z" />
<glyph unicode="&#x201e;" horiz-adv-x="436" d="M87 -160L59 -126Q89 -105 107 -81T126 -40Q126 -28 121 -20T100 1Q84 16 78 27T72 51Q72 71 86 83T123 96Q144 96 161 84T187 51T197 0Q197 -26 190 -49T168 -92T133 -129T87 -160ZM273 -160L245 -126Q275 -105
293 -81T312 -40Q312 -28 307 -20T286 1Q270 16 264 27T258 51Q258 71 272 83T309 96Q330 96 347 84T373 51T383 0Q383 -26 376 -49T354 -92T319 -129T273 -160Z" />
<glyph unicode="&#x2022;" horiz-adv-x="346" d="M173 236Q142 236 116 251T75 292T59 349Q59 380 74 406T115 448T173 464Q205 464 231 448T273 406T289 349Q289 318 273 292T231 251T173 236Z" />
<glyph unicode="&#x2039;" horiz-adv-x="271" d="M183 57L21 261V264L183 466L231 432L94 257L95 271L231 92L183 57Z" />
<glyph unicode="&#x203a;" horiz-adv-x="275" d="M90 55L42 89L179 264L178 250L42 429L90 464L252 260V257L90 55Z" />
</font>
</defs>
</svg>
