<?xml version="1.0" standalone="no"?>
<!DOCTYPE svg PUBLIC "-//W3C//DTD SVG 1.1//EN" "http://www.w3.org/Graphics/SVG/1.1/DTD/svg11.dtd">
<svg xmlns="http://www.w3.org/2000/svg">
<defs >
<font id="ReadexPro" horiz-adv-x="596" ><font-face
    font-family="Readex Pro ExtraLight"
    units-per-em="1000"
    panose-1="0 0 0 0 0 0 0 0 0 0"
    ascent="1000"
    descent="-250"
    alphabetic="0" />
<glyph unicode=" " horiz-adv-x="280" />
<glyph unicode="!" horiz-adv-x="248" d="M111 241Q108 284 106 328T102 417T100 504L101 700H153V504Q154 461 153 416T149 326T142 241H111ZM124 -9Q103 -9 92 4T80 41Q80 63 91 77T124 91Q146 91 157 78T169 41Q169 20 157 6T124 -9Z" />
<glyph unicode="&quot;" horiz-adv-x="358" d="M199 442L238 700H296L231 442H199ZM65 442L104 700H164L97 442H65Z" />
<glyph unicode="#" horiz-adv-x="684" d="M396 0L516 700H562L442 0H396ZM38 201V244H609V201H38ZM121 0L241 700H287L167 0H121ZM76 467V511H646V467H76Z" />
<glyph unicode="$" horiz-adv-x="586" d="M303 -10Q226 -10 161 20T53 104L88 145Q133 90 186 65T308 39Q358 39 398 57T464 105T489 175Q489 201 481 220T456 256T417 284T363 308T296 331Q225 351 179 376T110 436T87 524Q87 579 116 619T195 682T308 705Q388
705 441 675T528 599L492 563Q463 602 416 629T308 657Q259 657 221 641T161 594T139 523Q139 496 149 476T180 439T236 409T318 380Q371 363 412 346T482 307T526 255T541 184Q541 127 510 84T426 15T303 -10ZM276 -91V360L325 345V-91H276ZM339 349L290 363V782H339V349Z"
/>
<glyph unicode="%" horiz-adv-x="834" d="M157 0L622 700H675L209 0H157ZM193 329Q148 329 114 353T60 420T40 518Q40 573 59 616T113 684T193 709Q238 709 273 685T327 617T347 518Q347 465 327 422T272 354T193 329ZM193 369Q225 369 250 387T289 440T304 518Q304
563 290 597T251 649T193 668Q161 668 136 649T97 597T83 518Q83 451 114 410T193 369ZM637 -9Q592 -9 558 15T504 82T484 180Q484 236 503 279T557 346T637 371Q682 371 716 347T771 279T791 180Q791 127 771 84T716 16T637 -9ZM637 30Q669 30 694 49T733 102T747
180Q747 248 717 289T637 330Q605 330 580 311T540 259T526 180Q526 113 557 72T637 30Z" />
<glyph unicode="&amp;" horiz-adv-x="685" d="M552 0L489 68L475 83L268 309Q235 346 211 375T171 429T149 477T142 528Q142 580 167 620T237 682T341 705Q386 705 423 690T487 647T528 578L488 553Q464 609 430 634T341 659Q297 659 264 643T214 597T196 530Q196
506 203 485T224 442T258 396T305 343L512 117L526 100L618 0H552ZM312 -10Q236 -10 177 19T84 99T50 218Q50 286 87 341T197 427L227 389Q168 368 136 324T103 223Q103 169 131 127T207 62T321 38Q376 38 422 58T504 117T562 208T593 329H639Q632 268 613 216T566
123T500 52T415 6T312 -10Z" />
<glyph unicode="&apos;" horiz-adv-x="193" d="M50 442L82 700H141L83 442H50Z" />
<glyph unicode="(" horiz-adv-x="346" d="M304 -186Q182 -110 118 4T54 258Q54 397 118 511T305 702L333 670Q219 593 161 489T102 258Q102 134 158 30T333 -154L304 -186Z" />
<glyph unicode=")" horiz-adv-x="347" d="M42 -186L13 -154Q128 -77 185 28T243 258Q243 383 187 486T13 670L43 702Q165 626 229 512T293 258Q293 119 229 5T42 -186Z" />
<glyph unicode="*" horiz-adv-x="397" d="M177 376L182 521L191 517L67 443L46 478L177 543V532L44 598L66 635L192 558L182 548L177 700H220L213 551L202 557L329 634L350 597L221 533V544L350 479L329 443L204 518L213 519L220 376H177Z" />
<glyph unicode="+" horiz-adv-x="590" d="M263 42V525H318V42H263ZM55 262V308H535V262H55Z" />
<glyph unicode="," horiz-adv-x="234" d="M86 -142L67 -119Q92 -98 108 -76T124 -38Q124 -24 118 -17T96 -1Q85 9 79 18T73 40Q73 55 84 65T114 76Q133 76 146 67T167 40T175 -4Q175 -25 170 -44T153 -79T125 -111T86 -142Z" />
<glyph unicode="-" horiz-adv-x="394" d="M58 253V303H336V253H58Z" />
<glyph unicode="." horiz-adv-x="228" d="M114 -7Q93 -7 82 5T70 40Q70 60 82 73T114 86Q135 86 146 74T158 40Q158 19 146 6T114 -7Z" />
<glyph unicode="/" horiz-adv-x="563" d="M55 -108L455 700H506L105 -108H55Z" />
<glyph unicode="0" horiz-adv-x="615" d="M308 -10Q226 -10 168 32T80 154T50 350Q50 465 80 545T168 668T308 710Q391 710 448 668T536 546T566 350Q566 235 536 155T449 32T308 -10ZM308 39Q407 39 460 120T513 350Q513 500 460 580T308 661Q209 661 156 581T102
350Q102 201 155 120T308 39Z" />
<glyph unicode="1" horiz-adv-x="422" d="M193 23V657L209 646L70 561L56 607L220 710H245V23H193ZM77 0V51H362V0H77Z" />
<glyph unicode="2" horiz-adv-x="548" d="M83 0L68 37L331 323Q347 340 366 363T402 413T429 468T440 526Q440 565 420 595T364 643T281 661Q246 661 210 644T144 592T97 499L54 524Q73 587 106 628T186 689T287 710Q346 710 392 687T466 623T494 530Q494 498
485 467T459 406T421 347T373 290L129 29L121 51H509V0H83Z" />
<glyph unicode="3" horiz-adv-x="529" d="M259 -10Q186 -10 127 23T20 138L63 165Q93 117 125 89T191 50T264 38Q314 38 354 62T418 129T441 222Q441 273 420 311T361 372T277 395Q257 395 236 392T192 378T144 344L125 386L406 667L414 651H78V700H455L470 671L202
402L186 415Q206 429 229 437T281 445Q327 445 365 429T432 383T477 312T493 224Q493 158 463 105T379 21T259 -10Z" />
<glyph unicode="4" horiz-adv-x="620" d="M405 0V640L423 637L89 230L86 239H578V190H57L33 236L414 700H456V0H405Z" />
<glyph unicode="5" horiz-adv-x="568" d="M257 -9Q188 -9 133 23T39 115L73 150Q112 93 159 67T258 41Q314 41 359 67T430 137T456 236Q456 286 433 326T369 391T276 416Q245 416 215 409T155 386T95 349L66 386L111 700H487V651H137L155 665L114 385L99 401Q121
419 151 433T214 456T282 465Q347 465 398 436T478 356T508 237Q508 168 475 112T386 24T257 -9Z" />
<glyph unicode="6" horiz-adv-x="588" d="M291 -7Q242 -7 200 11T126 62T76 139T58 238Q57 275 67 320T100 415T157 521L274 704H325L329 697L207 506Q179 462 157 421T123 346T107 288L95 326Q119 374 150 405T220 451T300 467Q362 467 412 436T493 353T523 236Q523
167 493 112T410 25T291 -7ZM293 43Q343 43 383 67T447 135T471 232Q471 283 447 325T383 393T293 418Q241 418 200 393T134 326T110 231Q110 178 134 136T199 68T293 43Z" />
<glyph unicode="7" horiz-adv-x="493" d="M103 0L405 672L414 651H21V700H438L453 663L160 0H103Z" />
<glyph unicode="8" horiz-adv-x="580" d="M290 -3Q225 -3 172 23T87 95T55 195Q55 229 65 259T97 313T147 356T214 386L215 371Q173 380 143 402T97 457T81 523Q81 576 109 617T184 683T290 707Q348 707 395 683T471 618T500 523Q500 489 484 458T438 405T364
371L366 384Q413 371 449 344T505 279T526 195Q526 139 495 94T410 23T290 -3ZM290 46Q341 46 382 67T448 121T473 196Q473 241 450 276T385 331T290 351Q238 351 197 331T131 276T107 196Q107 156 131 122T197 67T290 46ZM290 397Q335 397 370 413T426 459T447
526Q447 563 427 592T371 639T290 657Q244 657 209 640T154 593T133 526Q133 489 153 460T209 414T290 397Z" />
<glyph unicode="9" horiz-adv-x="549" d="M255 0L253 7L462 408L465 381Q441 336 410 306T341 260T263 245Q202 245 152 275T71 357T41 473Q41 540 72 594T156 679T275 710Q323 710 365 693T438 644T488 570T507 476Q507 445 500 413T480 346T449 273T408 190L307
0H255ZM269 294Q321 294 362 318T427 384T451 477Q451 529 427 570T363 636T270 661Q222 661 182 637T119 571T95 477Q95 427 118 385T182 319T269 294Z" />
<glyph unicode=":" horiz-adv-x="228" d="M114 248Q93 248 82 260T70 295Q70 315 82 328T114 341Q135 341 146 329T158 295Q158 274 146 261T114 248ZM114 432Q93 432 82 444T70 479Q70 499 82 512T114 525Q135 525 146 513T158 479Q158 458 146 445T114 432Z" />
<glyph unicode=";" horiz-adv-x="238" d="M89 -142L70 -119Q95 -98 111 -76T127 -38Q127 -24 121 -17T99 -1Q88 9 82 18T76 40Q76 55 87 65T117 76Q136 76 149 67T170 40T178 -4Q178 -25 173 -44T156 -79T128 -111T89 -142ZM126 432Q105 432 94 444T82 479Q82
499 94 512T126 525Q147 525 158 513T170 479Q170 458 158 445T126 432Z" />
<glyph unicode="&lt;" horiz-adv-x="490" d="M406 24L48 230V275L406 480L431 441L81 238V266L431 65L406 24Z" />
<glyph unicode="=" horiz-adv-x="566" d="M60 342V388H506V342H60ZM60 173V220H506V173H60Z" />
<glyph unicode="&gt;" horiz-adv-x="489" d="M83 24L59 65L411 266V238L59 441L83 480L441 275V230L83 24Z" />
<glyph unicode="?" horiz-adv-x="464" d="M188 170L178 328Q225 340 261 358T322 401T357 455T369 519Q369 557 351 589T299 641T217 661Q181 661 149 648T90 606T45 534L9 562Q28 610 60 643T132 693T219 710Q279 710 325 685T398 616T424 520Q424 469 401 426T335
350T236 300L229 170H188ZM169 35Q169 56 180 69T210 82Q230 82 240 70T251 35Q251 16 240 3T210 -10Q190 -10 180 2T169 35Z" />
<glyph unicode="@" horiz-adv-x="979" d="M421 -162Q337 -162 269 -135T152 -57T77 63T50 218Q50 322 88 411T194 568T354 672T557 710Q640 710 708 686T825 620T902 518T929 388Q929 315 909 254T855 148T778 79T688 55Q657 55 637 66T606 96T596 138Q596 156
601 177T616 227L627 213Q610 164 581 129T513 74T428 55Q381 55 345 77T287 139T266 233Q266 286 283 335T331 424T405 487T498 510Q532 510 564 497T620 453T653 377L638 351L664 501H713L654 182Q646 139 654 119T698 98Q733 98 766 117T825 174T868 264T884
385Q884 474 843 537T728 634T556 668Q451 668 366 633T221 535T127 393T94 223Q94 144 117 81T184 -27T288 -96T422 -120Q461 -120 503 -112T584 -88T653 -55L674 -91Q631 -115 588 -131T504 -154T421 -162ZM437 99Q486 99 525 123T592 193T627 299Q630 308 631
318T632 337Q632 369 617 398T573 447T499 466Q452 466 410 435T343 351T317 232Q317 173 350 136T437 99Z" />
<glyph unicode="A" horiz-adv-x="643" d="M22 0L291 700H352L621 0H563L382 475Q379 482 372 504T353 556T331 615T312 666L327 665Q321 647 312 620T291 564T271 511T257 473L78 0H22ZM129 210L148 262H491L513 210H129Z" />
<glyph unicode="B" horiz-adv-x="662" d="M106 0V700H382Q442 700 484 678T550 618T573 529Q573 467 534 422T428 364L424 380Q484 374 525 349T588 285T610 197Q610 153 597 117T555 55T483 15T381 0H106ZM158 51H381Q473 51 514 91T556 195Q556 238 535 270T476
320T381 339H158V51ZM158 390H376Q417 390 449 407T501 454T520 522Q520 578 481 613T374 649H158V390Z" />
<glyph unicode="C" horiz-adv-x="686" d="M393 -10Q318 -10 257 16T149 89T78 202T53 347Q53 425 78 491T150 606T259 682T396 709Q449 709 496 694T582 653T651 591L613 554Q570 602 515 629T396 656Q334 656 281 633T189 569T129 471T107 347Q107 280 128 224T189
128T281 65T399 42Q441 42 478 52T548 81T607 126L636 83Q609 55 571 34T487 1T393 -10Z" />
<glyph unicode="D" horiz-adv-x="740" d="M106 0V700H362Q430 700 489 674T593 602T663 491T688 350Q688 274 663 210T594 99T490 26T362 0H106ZM158 42L151 51H357Q415 51 465 73T554 135T613 230T635 350Q635 415 614 470T554 565T466 627T357 649H149L158 659V42Z" />
<glyph unicode="E" horiz-adv-x="583" d="M106 0V700H515V649H158V51H510V0H106ZM132 336V387H458V336H132Z" />
<glyph unicode="F" horiz-adv-x="584" d="M106 0V700H158V0H106ZM131 326V377H466V326H131ZM132 649V700H519V649H132Z" />
<glyph unicode="G" horiz-adv-x="767" d="M403 -10Q327 -10 264 16T153 91T79 204T53 347Q53 426 79 492T152 606T262 682T402 709Q458 709 507 693T598 649T669 582L634 547Q591 598 532 628T402 658Q338 658 284 635T190 570T129 471T107 347Q107 282 129 226T192
129T287 64T405 41Q466 41 514 59T596 112T649 193T667 295V314L676 306H409V358H721Q722 351 722 345T722 335T722 325Q722 245 700 183T635 78T534 13T403 -10Z" />
<glyph unicode="H" horiz-adv-x="742" d="M584 0V700H636V0H584ZM106 0V700H158V0H106ZM130 323V375H608V323H130Z" />
<glyph unicode="I" horiz-adv-x="418" d="M59 0V49H183V651H59V700H361V651H236V49H361V0H59Z" />
<glyph unicode="J" horiz-adv-x="588" d="M226 -10Q192 -10 162 -1T107 25T63 65T31 119L65 153Q87 113 111 88T163 52T226 41Q272 41 306 60T360 119T379 216V651H251V700H538V651H432V213Q432 159 417 118T375 48T310 5T226 -10Z" />
<glyph unicode="K" horiz-adv-x="670" d="M144 226L142 289L560 700H630L144 226ZM106 0V700H158V0H106ZM578 0L286 388L326 422L645 0H578Z" />
<glyph unicode="L" horiz-adv-x="556" d="M106 0V700H158V51H501V0H106Z" />
<glyph unicode="M" horiz-adv-x="848" d="M106 0V700H154L435 250L415 251L696 700H742V0H689V452Q689 508 691 556T698 652L713 635L440 203H407L139 629L149 652Q155 607 156 560T158 454V0H106Z" />
<glyph unicode="N" horiz-adv-x="753" d="M106 0V700H154L611 65L603 61Q600 86 598 118T596 199T595 322V700H647V0H599L136 639L150 644Q153 609 154 576T156 512T158 456T158 407V0H106Z" />
<glyph unicode="O" horiz-adv-x="792" d="M396 -10Q321 -10 259 16T150 91T78 204T53 349Q53 428 78 494T149 608T258 683T396 710Q471 710 534 684T643 609T714 494T740 350Q740 271 715 205T643 91T534 17T396 -10ZM396 41Q460 41 513 64T605 128T665 226T686
349Q686 416 665 472T605 571T513 636T396 659Q333 659 280 636T188 572T128 473T107 349Q107 260 144 191T247 81T396 41Z" />
<glyph unicode="P" horiz-adv-x="612" d="M106 0V700H370Q426 700 468 674T535 603T560 499Q560 437 536 388T469 311T370 282H158V0H106ZM158 333H372Q411 333 441 355T489 414T507 499Q507 543 490 576T442 629T372 649H158V333Z" />
<glyph unicode="Q" horiz-adv-x="792" d="M638 -90L381 251L424 281L680 -59L638 -90ZM396 -10Q321 -10 259 16T150 91T78 204T53 349Q53 428 78 494T149 608T258 683T396 710Q471 710 534 684T643 609T714 494T740 350Q740 271 715 205T643 91T534 17T396 -10ZM396
41Q460 41 513 64T605 128T665 226T686 349Q686 416 665 472T605 571T513 636T396 659Q333 659 280 636T188 572T128 473T107 349Q107 260 144 191T247 81T396 41Z" />
<glyph unicode="R" horiz-adv-x="639" d="M106 0V700H373Q431 700 475 674T545 602T571 496Q571 435 546 386T476 309T373 281H158V0H106ZM533 0L356 304L411 318L596 0H533ZM158 332H381Q422 332 452 353T500 411T517 497Q517 542 499 576T447 630T370 649H158V332Z" />
<glyph unicode="S" horiz-adv-x="587" d="M306 -10Q219 -10 154 23T45 118L83 160Q125 97 180 68T312 39Q361 39 401 56T465 104T489 175Q489 200 480 219T452 254T408 283T349 306T276 327Q226 340 189 357T125 397T85 451T72 522Q72 576 102 618T186 685T304
710Q385 710 440 682T529 602L492 566Q460 612 415 636T303 661Q253 661 213 644T149 595T125 523Q125 493 136 471T169 431T222 401T296 378Q353 364 398 347T476 306T525 254T542 185Q542 128 512 84T429 15T306 -10Z" />
<glyph unicode="T" horiz-adv-x="519" d="M233 0V649H25V700H494V649H285V0H233Z" />
<glyph unicode="U" horiz-adv-x="743" d="M368 -6Q292 -6 232 29T137 127T102 269V700H154V278Q154 211 181 159T258 76T368 45Q433 45 483 75T561 158T590 278V700H640V269Q640 189 605 127T509 30T368 -6Z" />
<glyph unicode="V" horiz-adv-x="643" d="M293 0L21 700H81L294 146Q302 126 307 110T318 81T326 58T332 40H315Q318 50 323 65T335 100T352 145L560 700H622L348 0H293Z" />
<glyph unicode="W" horiz-adv-x="901" d="M227 0L21 700H77L217 217Q227 183 233 157T246 105T262 48H244Q262 99 273 130T292 183T307 223L429 540H473L593 223Q600 208 606 189T624 138T657 52L639 49Q647 79 651 96T658 123T663 144T670 171T684 219L823 700H879L674
0H631L441 478L457 476L269 0H227Z" />
<glyph unicode="X" horiz-adv-x="619" d="M530 0L290 337L27 700H95L324 375L597 0H530ZM22 0L284 369L318 333L85 0H22ZM332 342L298 378L524 700H587L332 342Z" />
<glyph unicode="Y" horiz-adv-x="616" d="M288 0V342L296 300L17 700H79L323 349L307 351L540 700H599L329 297L340 345V0H288Z" />
<glyph unicode="Z" horiz-adv-x="643" d="M60 0V43L515 664L528 649H86V700H574V658L120 37L112 51H585V0H60Z" />
<glyph unicode="[" horiz-adv-x="349" d="M77 -190V700H304V658H116L125 666V-160L114 -148H304V-190H77Z" />
<glyph unicode="\" horiz-adv-x="533" d="M436 -99L40 700H93L489 -99H436Z" />
<glyph unicode="]" horiz-adv-x="350" d="M45 -190V-148H233L225 -156V670L236 658H45V700H273V-190H45Z" />
<glyph unicode="^" horiz-adv-x="582" d="M43 368L266 727H316L540 368H482L286 681L298 682L101 368H43Z" />
<glyph unicode="_" horiz-adv-x="694" d="M55 -125V-82H639V-125H55Z" />
<glyph unicode="`" horiz-adv-x="500" d="M318 609L163 710L196 752L337 637L318 609Z" />
<glyph unicode="a" horiz-adv-x="536" d="M422 0V358Q422 416 382 450T271 484Q219 484 175 462T98 398L64 432Q105 482 158 507T275 532Q335 532 378 513T445 455T468 364V0H422ZM221 -10Q170 -10 130 10T67 65T43 149Q43 185 56 213T97 260T165 289T260 299H444L440
255H251Q212 255 183 248T133 228T102 195T91 149Q91 116 109 90T156 50T222 36Q268 36 307 52T378 96T429 163L446 132Q423 91 389 59T312 9T221 -10Z" />
<glyph unicode="b" horiz-adv-x="612" d="M325 -10Q287 -10 251 2T185 37T135 89T108 152L121 154L120 1H70V740H121V368L110 369Q118 403 138 432T186 484T248 519T321 532Q394 532 450 498T539 402T572 262Q572 184 539 123T450 26T325 -10ZM318 38Q378 38 424
67T496 147T523 262Q523 327 497 376T425 455T318 484Q261 484 217 456T146 377T119 261Q119 197 145 147T216 67T318 38Z" />
<glyph unicode="c" horiz-adv-x="529" d="M303 -10Q226 -10 167 25T74 122T40 263Q40 341 74 401T167 497T303 532Q368 532 421 507T507 438L477 402Q456 427 429 445T371 474T306 484Q243 484 195 456T118 378T89 263Q90 198 118 147T195 67T306 37Q340 37 370
46T427 74T476 118L506 82Q471 40 418 15T303 -10Z" />
<glyph unicode="d" horiz-adv-x="615" d="M293 -10Q220 -10 163 25T73 120T40 260Q40 339 73 400T163 496T290 532Q330 532 366 519T433 482T483 429T507 365L493 366V740H544V0H493V155L505 158Q500 123 481 93T433 40T368 4T293 -10ZM297 36Q354 36 398 64T469
144T495 261Q495 327 469 378T399 458T296 487Q236 487 190 458T117 377T91 260Q91 196 117 145T189 65T297 36Z" />
<glyph unicode="e" horiz-adv-x="560" d="M304 -10Q226 -10 167 25T74 121T40 261Q40 321 58 370T110 456T191 512T294 532Q344 532 386 515T460 465T508 388T523 288L522 255H75L67 299H483L471 282V307Q471 359 447 399T383 461T295 484Q232 484 186 457T116
380T91 263Q91 196 118 146T194 67T308 38Q355 38 395 54T472 104L498 67Q474 44 443 27T377 0T304 -10Z" />
<glyph unicode="f" horiz-adv-x="358" d="M137 0V611Q137 656 152 686T195 731T259 747Q293 747 318 735T357 703L336 666Q321 684 303 691T262 698Q239 698 222 690T196 662T187 610V0H164Q156 0 150 0T137 0ZM35 474V522H329V474H35Z" />
<glyph unicode="g" horiz-adv-x="619" d="M299 -237Q243 -237 193 -218T111 -166L131 -126Q161 -155 205 -172T298 -189Q354 -189 399 -164T470 -90T497 27V154H507Q497 107 466 71T391 12T296 -10Q222 -10 164 25T73 120T40 260Q40 339 74 400T165 496T292 532Q324
532 353 524T409 500T456 465T491 420T510 371L497 370L498 525H547V24Q547 -37 529 -85T477 -167T398 -219T299 -237ZM299 38Q357 38 401 66T472 145T498 261Q498 326 473 376T402 455T298 484Q238 484 191 455T118 376T91 260Q91 196 117 146T191 67T299 38Z"
/>
<glyph unicode="h" horiz-adv-x="560" d="M70 0V740H121V409L109 403Q121 438 150 467T221 514T308 532Q367 532 408 510T470 442T492 325V0H441V323Q441 380 425 416T376 468T296 484Q258 484 226 472T171 439T134 397T121 356V0H96Q91 0 84 0T70 0Z" />
<glyph unicode="i" horiz-adv-x="225" d="M87 0V525H138V0H87ZM113 655Q92 655 81 666T70 697Q70 716 81 727T113 738Q132 738 143 727T155 697Q155 679 145 667T113 655Z" />
<glyph unicode="j" horiz-adv-x="191" d="M-19 -195L-38 -153Q23 -153 49 -122T75 -36V525H126V-47Q126 -94 109 -127T59 -177T-19 -195ZM100 655Q80 655 69 666T58 697Q58 716 69 727T100 738Q120 738 131 727T142 697Q142 679 132 667T100 655Z" />
<glyph unicode="k" horiz-adv-x="508" d="M113 174L111 235L404 525H475L113 174ZM70 0V740H121V0H70ZM433 0L198 270L235 304L499 0H433Z" />
<glyph unicode="l" horiz-adv-x="221" d="M86 0V740H136V0H86Z" />
<glyph unicode="m" horiz-adv-x="892" d="M67 0V525H117L118 400L102 398Q117 430 137 455T183 497T238 522T298 531Q342 531 376 518T434 475T467 396L455 394L461 411Q473 439 492 461T538 499T593 523T651 531Q709 531 748 510T808 442T829 323V0H777V322Q777
407 742 445T638 484Q603 484 573 472T521 440T486 396T474 347V0H423V322Q423 406 388 445T286 484Q249 484 219 471T166 439T130 397T117 355V0H67Z" />
<glyph unicode="n" horiz-adv-x="560" d="M70 0V525H120L121 409L109 402Q120 437 149 466T221 514T308 532Q367 532 408 510T470 442T492 325V0H441V323Q441 380 425 416T376 468T296 484Q258 484 226 472T171 439T134 397T121 356V0H96Q91 0 84 0T70 0Z" />
<glyph unicode="o" horiz-adv-x="615" d="M308 -10Q230 -10 170 25T75 122T40 263Q40 341 74 401T169 497T308 532Q387 532 447 497T541 402T575 263Q575 184 541 123T447 26T308 -10ZM308 38Q371 38 420 67T496 147T524 263Q524 328 497 377T420 455T308 484Q245
484 196 456T119 377T91 263Q91 198 119 147T196 67T308 38Z" />
<glyph unicode="p" horiz-adv-x="612" d="M70 -227V525H120L122 368L110 369Q121 415 152 451T227 509T322 531Q394 531 451 497T540 401T572 262Q572 184 539 123T450 26T325 -10Q274 -10 228 12T150 71T109 152L122 154V-227H70ZM319 38Q379 38 425 67T497 147T523
262Q523 326 497 376T425 455T318 484Q261 484 217 456T146 377T120 261Q120 197 146 147T216 67T319 38Z" />
<glyph unicode="q" horiz-adv-x="617" d="M490 -227V155L504 158Q498 123 479 93T430 40T366 4T292 -10Q220 -10 163 25T73 120T40 260Q40 339 73 400T163 496T288 532Q328 532 365 519T432 482T481 429T505 365L490 366L492 525H541V-227H490ZM295 38Q351 38
395 66T466 145T492 261Q492 326 466 376T396 455T294 484Q234 484 188 455T115 376T89 260Q89 196 115 146T187 67T295 38Z" />
<glyph unicode="r" horiz-adv-x="343" d="M70 0V525H120L121 384L114 397Q122 432 145 462T204 512T285 532Q302 532 317 530T343 523L329 469Q314 474 300 476T273 479Q238 479 210 465T162 428T132 377T122 321V0H70Z" />
<glyph unicode="s" horiz-adv-x="479" d="M248 -10Q182 -10 128 14T43 81L79 111Q108 76 151 55T252 34Q285 34 309 42T350 64T373 97T381 136Q381 176 347 200Q330 213 303 223T239 242Q189 254 154 270T96 307Q79 324 70 344T61 390Q61 432 83 464T146 514T240
532Q276 532 310 522T374 494T426 447L395 413Q374 436 350 453T298 479T242 488Q211 488 187 481T145 462T120 432T111 392Q112 377 118 362T138 336Q154 323 183 311T254 290Q300 279 333 266T388 233Q409 215 419 192T429 138Q429 93 406 60T343 9T248 -10Z"
/>
<glyph unicode="t" horiz-adv-x="362" d="M154 0V659H205V0H154ZM23 476V525H345V476H23Z" />
<glyph unicode="u" horiz-adv-x="562" d="M261 -10Q202 -10 160 13T96 82T73 198V525H124V209Q124 121 164 79T277 36Q311 36 340 49T391 83T426 126T439 170V525H490V0H441L439 118L451 123Q439 87 411 57T345 8T261 -10Z" />
<glyph unicode="v" horiz-adv-x="505" d="M232 0L17 525H72L258 63L244 59L433 525H487L268 0H232Z" />
<glyph unicode="w" horiz-adv-x="763" d="M200 0L17 525H69L229 63H211L366 444H397L553 63H534L693 525H745L563 0H529L371 391L389 390L234 0H200Z" />
<glyph unicode="x" horiz-adv-x="505" d="M430 0L238 243L230 254L20 525H84L265 290L275 277L494 0H430ZM12 0L226 272L258 236L75 0H12ZM278 259L250 296L417 525H479L278 259Z" />
<glyph unicode="y" horiz-adv-x="530" d="M158 -230L257 11L260 -28L12 525H70L265 86Q272 72 276 61T283 40L268 35Q274 49 279 63T290 92L459 525H518L301 -8L214 -230H158Z" />
<glyph unicode="z" horiz-adv-x="449" d="M40 0V47L347 495L345 479H40V525H394V477L92 36L88 46H409V0H40Z" />
<glyph unicode="{" horiz-adv-x="405" d="M352 -191Q314 -182 285 -168T235 -131T205 -77T195 -7L197 88Q197 154 168 190T84 228H57V272H85Q140 273 168 309T197 412L195 507Q195 586 235 630T352 691L363 654Q318 641 292 623T253 573T241 493L243 398Q243 340
220 302T149 249V252Q196 235 219 197T243 102L241 7Q241 -41 253 -72T291 -121T363 -154L352 -191Z" />
<glyph unicode="|" horiz-adv-x="226" d="M88 -193V740H138V-193H88Z" />
<glyph unicode="}" horiz-adv-x="406" d="M53 -191L43 -154Q87 -141 113 -123T152 -73T164 7L162 102Q162 160 186 198T256 251L257 248Q209 265 186 303T162 398L164 493Q164 541 152 572T114 622T43 654L53 691Q92 682 121 667T170 630T200 577T210 507L209
412Q209 346 238 310T321 272H349V228H320Q265 227 237 191T209 88L210 -7Q210 -86 171 -129T53 -191Z" />
<glyph unicode="~" horiz-adv-x="510" d="M358 242Q338 242 316 248T275 263T242 277Q228 283 212 289T180 300T150 305Q130 305 117 291T103 246H63Q63 295 88 322T154 350Q172 350 193 344T236 329T274 312Q285 308 300 302T330 291T359 286Q378 286 392 299T405
342L446 341Q446 309 435 287T404 254T358 242Z" />
<glyph unicode="&#xa0;" horiz-adv-x="280" />
<glyph unicode="&#xa1;" horiz-adv-x="248" d="M138 289Q141 247 143 203T147 114T148 26L147 -170H95V26Q95 70 96 115T100 204T106 289H138ZM124 539Q146 539 157 526T169 489Q169 468 157 454T124 439Q103 439 92 452T80 489Q80 511 92 525T124 539Z" />
<glyph unicode="&#xa2;" horiz-adv-x="532" d="M306 78Q230 78 170 113T77 210T43 351Q43 429 76 489T170 584T306 619Q371 619 424 595T510 526L479 490Q460 515 433 533T375 562T310 573Q247 573 198 544T120 466T92 351Q92 286 120 235T198 155T310 125Q343
125 373 134T429 162T478 206L508 171Q475 129 422 104T306 78ZM268 0V94L270 112V587L268 610V700H316V610L314 590V111L316 94V0H268Z" />
<glyph unicode="&#xa3;" horiz-adv-x="610" d="M178 49L139 66Q162 79 178 117T195 201Q195 220 193 239T183 285T162 352Q150 392 144 418T136 462T133 497Q133 558 158 603T230 674T340 700Q403 700 446 679T516 616L478 587Q446 625 414 639T340 653Q295 653
259 633T204 578T184 496Q184 463 194 424T215 353Q229 315 237 281T245 211Q245 182 239 156T219 103T178 49ZM439 -10Q410 -10 377 -3T313 15Q297 20 275 26T233 36T204 40Q175 40 141 31T72 7L50 44Q85 62 123 73T204 84Q230 84 257 79T334 56Q360 48 386 41T439
34Q466 34 491 42T545 67L571 33Q544 13 510 2T439 -10ZM54 342V387H442V342H54Z" />
<glyph unicode="&#xa4;" horiz-adv-x="558" d="M279 122Q230 122 190 146T125 210T101 302Q101 353 125 393T189 458T279 482Q328 482 368 458T432 393T457 302Q457 251 433 211T369 146T279 122ZM107 100L72 136L151 213L186 178L107 100ZM150 394L69 469L104
505L185 428L150 394ZM279 168Q318 168 347 185T392 233T409 302Q409 341 393 371T347 419T279 437Q242 437 213 420T166 372T149 302Q149 263 166 233T212 186T279 168ZM451 104L370 179L405 213L485 139L451 104ZM407 395L372 429L451 508L487 473L407 395Z"
/>
<glyph unicode="&#xa5;" horiz-adv-x="616" d="M288 0V342L296 300L17 700H79L323 349L307 351L539 700H599L329 297L340 345V0H288ZM136 129V173L501 172V128L136 129ZM136 275V319H501V274L136 275Z" />
<glyph unicode="&#xa6;" horiz-adv-x="229" d="M90 -202V198H138V-202H90ZM90 341V740H138V341H90Z" />
<glyph unicode="&#xa7;" horiz-adv-x="542" d="M343 154L325 185Q366 194 397 220T429 290Q429 324 408 342T353 372L212 421Q195 428 176 439T140 466T113 507T103 562Q103 605 124 637T185 688T276 706Q313 706 347 697T410 669T463 622L433 587Q413 610 388
626T335 650T275 659Q223 659 188 634T153 563Q153 543 162 525T190 493T238 468L364 424Q429 402 454 369T478 293Q477 253 459 225T411 179T343 154ZM282 -87Q242 -87 203 -78T130 -51T69 -10L97 29Q133 -3 181 -21T281 -40Q337 -40 373 -16T410 53Q410 74 400
91T369 122T318 145L184 192Q123 213 98 246T73 323Q73 359 90 388T136 437T202 463L219 429Q197 423 176 410T141 376T127 325Q127 292 148 273T207 240L336 194Q370 183 398 165T442 121T459 57Q459 14 438 -18T376 -69T282 -87Z" />
<glyph unicode="&#xa8;" horiz-adv-x="500" d="M334 656Q313 656 303 667T292 697Q292 716 302 727T334 739Q353 739 365 728T377 697Q377 679 366 668T334 656ZM166 656Q146 656 135 667T123 697Q123 716 134 727T166 739Q186 739 197 728T208 697Q208 679 198
668T166 656Z" />
<glyph unicode="&#xa9;" horiz-adv-x="786" d="M392 -8Q317 -8 252 19T139 95T63 209T35 349Q35 424 62 489T138 603T252 679T392 707Q467 707 532 680T646 603T722 489T750 349Q750 274 723 209T646 96T532 20T392 -8ZM403 142Q344 142 298 169T223 243T195 350Q195
408 223 454T297 529T403 557Q437 557 470 546T532 512L511 474Q490 489 464 502T403 515Q357 515 320 492T262 432T240 350Q240 304 261 267T320 207T403 184Q436 184 462 193T515 222L536 185Q506 164 472 153T403 142ZM393 32Q460 32 517 56T617 124T685 225T709
350Q709 417 685 474T618 574T517 642T393 667Q326 667 269 643T168 575T100 474T76 350Q76 283 100 226T168 125T269 57T393 32Z" />
<glyph unicode="&#xaa;" horiz-adv-x="365" d="M164 399Q123 399 92 420T43 477T25 561Q25 607 44 643T95 700T169 721Q214 721 245 696T284 624L273 645L274 716H319V403H273V477L284 494Q279 468 262 446T219 411T164 399ZM174 435Q219 435 247 464T276 559Q276
626 247 655T174 684Q130 684 100 649T70 561Q70 525 83 497T120 452T174 435Z" />
<glyph unicode="&#xab;" horiz-adv-x="463" d="M389 64L224 265V269L389 462L423 438L271 259V276L424 89L389 64ZM195 64L30 265V269L195 462L229 438L77 259V276L230 89L195 64Z" />
<glyph unicode="&#xac;" horiz-adv-x="670" d="M559 117V358L573 346H60V394H610V117H559Z" />
<glyph unicode="&#xad;" horiz-adv-x="394" d="M58 253V303H336V253H58Z" />
<glyph unicode="&#xae;" horiz-adv-x="519" d="M259 257Q196 257 144 287T60 369T28 483Q28 546 59 597T143 679T259 709Q307 709 348 692T422 643T472 571T490 483Q490 421 459 370T376 288T259 257ZM259 292Q313 292 357 318T428 387T455 483Q455 537 428 580T357
648T259 674Q205 674 161 649T90 580T63 483Q63 431 90 388T161 318T259 292ZM306 367L267 470L297 479L342 367H306ZM185 367V606H273Q307 606 327 586T348 532Q348 502 327 483T273 463H206L217 469V367H185ZM217 484L207 490H263Q287 490 301 502T315 532Q315
553 303 564T265 575H203L217 583V484Z" />
<glyph unicode="&#xaf;" horiz-adv-x="424" d="M113 656V697H387V656H113Z" />
<glyph unicode="&#xb0;" horiz-adv-x="532" d="M266 399Q222 399 187 420T131 475T110 553Q110 597 130 632T186 688T266 709Q311 709 346 689T401 633T422 554Q422 511 402 476T346 420T266 399ZM266 436Q297 436 323 452T366 495T382 554Q382 586 366 612T323
654T266 671Q235 671 209 655T166 612T150 553Q150 521 166 495T209 453T266 436Z" />
<glyph unicode="&#xb1;" horiz-adv-x="598" d="M60 325V370H538V325H60ZM60 44V90H538V44H60ZM273 169V528H325V169H273Z" />
<glyph unicode="&#xb2;" horiz-adv-x="346" d="M72 418L67 459L189 594Q203 610 215 625T235 655T243 686Q243 711 226 725T183 740Q159 740 137 726T94 679L62 701Q83 736 115 757T186 779Q228 779 256 754T285 690Q285 667 275 646T249 604T213 562L106 446L108
455H295V418H72Z" />
<glyph unicode="&#xb3;" horiz-adv-x="342" d="M171 412Q143 412 114 421T63 446L82 477Q109 460 128 455T167 449Q206 449 231 471T257 530Q257 562 234 582T176 602Q155 602 139 598T101 582L91 611L229 740L239 734H80V772H266L270 733L141 614L125 618Q146
630 159 633T184 637Q233 637 265 608T297 531Q297 497 281 470T236 428T171 412Z" />
<glyph unicode="&#xb4;" horiz-adv-x="500" d="M182 609L163 637L304 752L337 710L182 609Z" />
<glyph unicode="&#xb5;" horiz-adv-x="562" d="M75 -157V525H124V191Q124 142 140 107T188 54T271 36Q306 36 336 49T389 86T424 139T437 203V525H486V0H438L434 131L450 126Q433 78 404 48T340 4T265 -10Q227 -10 195 1T140 40T110 114L124 88V-157H75Z" />
<glyph unicode="&#xb6;" horiz-adv-x="620" d="M279 0V300L294 279H241Q187 279 145 306T78 379T53 486Q53 551 81 599T159 673T278 700H514V0H461V679L474 649H308L331 676V0H279Z" />
<glyph unicode="&#xb7;" horiz-adv-x="228" d="M114 257Q93 257 82 269T70 304Q70 324 82 337T114 350Q135 350 146 338T158 304Q158 283 146 270T114 257Z" />
<glyph unicode="&#xb8;" horiz-adv-x="500" d="M173 -233L166 -204Q195 -200 223 -194T271 -174T290 -138Q290 -119 274 -110T236 -96T194 -92L181 -82L241 9H277L229 -62Q284 -67 309 -87T334 -139Q334 -166 319 -183T280 -210T228 -225T173 -233Z" />
<glyph unicode="&#xb9;" horiz-adv-x="281" d="M148 431V734L154 727L71 680L53 714L159 777H188V431H168Q163 431 158 431T148 431Z" />
<glyph unicode="&#xba;" horiz-adv-x="358" d="M179 392Q138 392 105 413T53 472T34 557Q34 605 53 643T105 702T179 724Q220 724 253 702T305 642T325 557Q325 510 306 473T253 414T179 392ZM177 430Q222 430 251 466T280 556Q280 613 251 649T178 685Q134 685
106 649T77 556Q77 503 105 467T177 430Z" />
<glyph unicode="&#xbb;" horiz-adv-x="491" d="M294 59L260 83L412 262V245L259 432L294 457L459 256V252L294 59ZM78 59L44 83L196 262V245L43 432L78 457L243 256V252L78 59Z" />
<glyph unicode="&#xbc;" horiz-adv-x="766" d="M157 361V664L163 657L80 610L62 644L168 707H197V361H177Q172 361 167 361T157 361ZM98 0L566 700H619L151 0H98ZM655 122H724V84H655V122ZM472 101L464 122H636L623 108V317L637 309L472 101ZM663 0H623V94L633
84H445L437 117L626 356H663V0Z" />
<glyph unicode="&#xbd;" horiz-adv-x="772" d="M157 361V664L163 657L80 610L62 644L168 707H197V361H177Q172 361 167 361T157 361ZM79 0L547 700H600L132 0H79ZM474 0L469 41L591 176Q605 192 617 207T637 237T645 268Q645 293 628 307T585 322Q561 322 539
308T496 261L464 283Q485 318 517 339T588 361Q630 361 658 336T687 272Q687 249 677 228T651 186T615 144L508 28L510 37H697V0H474Z" />
<glyph unicode="&#xbe;" horiz-adv-x="728" d="M128 342Q100 342 71 351T20 376L39 407Q66 390 85 385T124 379Q163 379 188 401T214 460Q214 492 191 512T133 532Q112 532 96 528T58 512L48 541L186 670L196 664H37V702H223L227 663L98 544L82 548Q103 560 116
563T141 567Q190 567 222 538T254 461Q254 427 238 400T193 358T128 342ZM86 0L554 700H607L139 0H86ZM617 122H686V84H617V122ZM434 101L426 122H598L585 108V317L599 309L434 101ZM625 0H585V94L595 84H407L399 117L588 356H625V0Z" />
<glyph unicode="&#xbf;" horiz-adv-x="464" d="M244 364L254 206Q207 194 171 176T111 133T75 79T63 15Q63 -23 81 -55T134 -107T216 -127Q251 -127 283 -114T342 -72T387 0L424 -28Q404 -76 372 -108T300 -158T214 -176Q154 -176 108 -151T35 -82T9 14Q9 65 32
108T98 184T196 234L204 364H244ZM263 499Q263 478 252 465T222 452Q202 452 192 464T181 499Q181 518 192 531T222 544Q242 544 252 533T263 499Z" />
<glyph unicode="&#xc0;" horiz-adv-x="643" d="M22 0L291 700H352L621 0H563L382 475Q379 482 372 504T353 556T331 615T312 666L327 665Q321 647 312 620T291 564T271 511T257 473L78 0H22ZM129 210L148 262H491L513 210H129ZM383 761L212 844L237 889L399 790L383 761Z" />
<glyph unicode="&#xc1;" horiz-adv-x="643" d="M22 0L291 700H352L621 0H563L382 475Q379 482 372 504T353 556T331 615T312 666L327 665Q321 647 312 620T291 564T271 511T257 473L78 0H22ZM129 210L148 262H491L513 210H129ZM263 761L247 790L409 889L434 844L263 761Z" />
<glyph unicode="&#xc2;" horiz-adv-x="643" d="M22 0L291 700H352L621 0H563L382 475Q379 482 372 504T353 556T331 615T312 666L327 665Q321 647 312 620T291 564T271 511T257 473L78 0H22ZM129 210L148 262H491L513 210H129ZM207 765L186 785L299 874H344L456
785L435 765L312 840H331L207 765Z" />
<glyph unicode="&#xc3;" horiz-adv-x="643" d="M22 0L291 700H352L621 0H563L382 475Q379 482 372 504T353 556T331 615T312 666L327 665Q321 647 312 620T291 564T271 511T257 473L78 0H22ZM129 210L148 262H491L513 210H129ZM386 779Q370 779 352 785T301 805Q291
810 277 815T249 821Q235 821 225 811T215 779H173Q173 818 196 840T250 862Q273 862 293 853T332 836Q354 827 364 824T382 820Q400 820 413 830T427 862H468Q468 838 458 819T428 790T386 779Z" />
<glyph unicode="&#xc4;" horiz-adv-x="643" d="M22 0L291 700H352L621 0H563L382 475Q379 482 372 504T353 556T331 615T312 666L327 665Q321 647 312 620T291 564T271 511T257 473L78 0H22ZM129 210L148 262H491L513 210H129ZM406 779Q386 779 375 790T364 820Q364
836 375 848T406 860Q428 860 438 850T448 820Q448 804 438 792T406 779ZM236 779Q217 779 206 790T194 820Q194 836 205 848T236 860Q258 860 268 850T278 820Q278 804 268 792T236 779Z" />
<glyph unicode="&#xc5;" horiz-adv-x="643" d="M22 0L291 700H352L621 0H563L382 475Q379 482 372 504T353 556T331 615T312 666L327 665Q321 647 312 620T291 564T271 511T257 473L78 0H22ZM129 210L148 262H491L513 210H129ZM321 686Q296 686 274 698T237 732T223
779Q223 806 236 827T272 862T321 876Q347 876 369 863T405 828T419 779Q419 754 406 733T370 699T321 686ZM321 719Q348 719 366 737T385 779Q385 809 367 825T321 842Q294 842 277 825T259 779Q259 755 277 737T321 719Z" />
<glyph unicode="&#xc6;" horiz-adv-x="941" d="M2 0L482 700H873V653H528V383H819V335H528V47H873V0H479V194H180L212 240H479V644L492 639L58 0H2Z" />
<glyph unicode="&#xc7;" horiz-adv-x="686" d="M393 -10Q318 -10 257 16T149 89T78 202T53 347Q53 425 78 491T150 606T259 682T396 709Q449 709 496 694T582 653T651 591L613 554Q570 602 515 629T396 656Q334 656 281 633T189 569T129 471T107 347Q107 280 128
224T189 128T281 65T399 42Q441 42 478 52T548 81T607 126L636 83Q609 55 571 34T487 1T393 -10ZM301 -233L295 -204Q323 -200 351 -194T399 -174T419 -138Q419 -119 403 -110T365 -96T322 -92L309 -82L370 9H406L358 -62Q413 -67 438 -87T463 -139Q463 -166 448
-183T409 -210T357 -225T301 -233Z" />
<glyph unicode="&#xc8;" horiz-adv-x="583" d="M106 0V700H515V649H158V51H510V0H106ZM132 336V387H458V336H132ZM379 761L208 844L233 889L395 790L379 761Z" />
<glyph unicode="&#xc9;" horiz-adv-x="583" d="M106 0V700H515V649H158V51H510V0H106ZM132 336V387H458V336H132ZM260 761L244 790L406 889L431 844L260 761Z" />
<glyph unicode="&#xca;" horiz-adv-x="583" d="M106 0V700H515V649H158V51H510V0H106ZM132 336V387H458V336H132ZM204 765L183 785L296 874H341L453 785L432 765L309 840H328L204 765Z" />
<glyph unicode="&#xcb;" horiz-adv-x="583" d="M106 0V700H515V649H158V51H510V0H106ZM132 336V387H458V336H132ZM403 779Q383 779 372 790T361 820Q361 836 372 848T403 860Q425 860 435 850T445 820Q445 804 435 792T403 779ZM233 779Q214 779 203 790T191 820Q191
836 202 848T233 860Q255 860 265 850T275 820Q275 804 265 792T233 779Z" />
<glyph unicode="&#xcc;" horiz-adv-x="418" d="M59 0V49H183V651H59V700H361V651H236V49H361V0H59ZM526 761L355 844L380 889L542 790L526 761Z" />
<glyph unicode="&#xcd;" horiz-adv-x="418" d="M59 0V49H183V651H59V700H361V651H236V49H361V0H59ZM407 761L391 790L553 889L578 844L407 761Z" />
<glyph unicode="&#xce;" horiz-adv-x="418" d="M59 0V49H183V651H59V700H361V651H236V49H361V0H59ZM350 765L329 785L442 874H487L599 785L578 765L455 840H474L350 765Z" />
<glyph unicode="&#xcf;" horiz-adv-x="418" d="M59 0V49H183V651H59V700H361V651H236V49H361V0H59ZM550 779Q530 779 519 790T508 820Q508 836 519 848T550 860Q572 860 582 850T592 820Q592 804 582 792T550 779ZM380 779Q361 779 350 790T338 820Q338 836 349
848T380 860Q402 860 412 850T422 820Q422 804 412 792T380 779Z" />
<glyph unicode="&#xd0;" horiz-adv-x="741" d="M33 327V372H301V327H33ZM106 0V700H362Q430 700 489 674T593 602T663 491T688 350Q688 274 663 210T594 99T490 26T362 0H106ZM158 42L151 51H357Q415 51 465 73T554 135T613 230T635 350Q635 415 614 470T554 565T466
627T357 649H149L158 659V42Z" />
<glyph unicode="&#xd1;" horiz-adv-x="753" d="M106 0V700H154L611 65L603 61Q600 86 598 118T596 199T595 322V700H647V0H599L136 639L150 644Q153 609 154 576T156 512T158 456T158 407V0H106ZM442 779Q426 779 408 785T357 805Q347 810 333 815T305 821Q291
821 281 811T271 779H229Q229 818 252 840T306 862Q329 862 349 853T388 836Q410 827 420 824T438 820Q456 820 469 830T483 862H524Q524 838 514 819T484 790T442 779Z" />
<glyph unicode="&#xd2;" horiz-adv-x="792" d="M396 -10Q321 -10 259 16T150 91T78 204T53 349Q53 428 78 494T149 608T258 683T396 710Q471 710 534 684T643 609T714 494T740 350Q740 271 715 205T643 91T534 17T396 -10ZM396 41Q460 41 513 64T605 128T665 226T686
349Q686 416 665 472T605 571T513 636T396 659Q333 659 280 636T188 572T128 473T107 349Q107 260 144 191T247 81T396 41ZM457 761L286 844L311 889L473 790L457 761Z" />
<glyph unicode="&#xd3;" horiz-adv-x="792" d="M396 -10Q321 -10 259 16T150 91T78 204T53 349Q53 428 78 494T149 608T258 683T396 710Q471 710 534 684T643 609T714 494T740 350Q740 271 715 205T643 91T534 17T396 -10ZM396 41Q460 41 513 64T605 128T665 226T686
349Q686 416 665 472T605 571T513 636T396 659Q333 659 280 636T188 572T128 473T107 349Q107 260 144 191T247 81T396 41ZM338 761L322 790L484 889L509 844L338 761Z" />
<glyph unicode="&#xd4;" horiz-adv-x="792" d="M396 -10Q321 -10 259 16T150 91T78 204T53 349Q53 428 78 494T149 608T258 683T396 710Q471 710 534 684T643 609T714 494T740 350Q740 271 715 205T643 91T534 17T396 -10ZM396 41Q460 41 513 64T605 128T665 226T686
349Q686 416 665 472T605 571T513 636T396 659Q333 659 280 636T188 572T128 473T107 349Q107 260 144 191T247 81T396 41ZM282 765L261 785L374 874H419L531 785L510 765L387 840H406L282 765Z" />
<glyph unicode="&#xd5;" horiz-adv-x="792" d="M396 -10Q321 -10 259 16T150 91T78 204T53 349Q53 428 78 494T149 608T258 683T396 710Q471 710 534 684T643 609T714 494T740 350Q740 271 715 205T643 91T534 17T396 -10ZM396 41Q460 41 513 64T605 128T665 226T686
349Q686 416 665 472T605 571T513 636T396 659Q333 659 280 636T188 572T128 473T107 349Q107 260 144 191T247 81T396 41ZM461 779Q445 779 427 785T376 805Q366 810 352 815T324 821Q310 821 300 811T290 779H248Q248 818 271 840T325 862Q348 862 368 853T407
836Q429 827 439 824T457 820Q475 820 488 830T502 862H543Q543 838 533 819T503 790T461 779Z" />
<glyph unicode="&#xd6;" horiz-adv-x="792" d="M396 -10Q321 -10 259 16T150 91T78 204T53 349Q53 428 78 494T149 608T258 683T396 710Q471 710 534 684T643 609T714 494T740 350Q740 271 715 205T643 91T534 17T396 -10ZM396 41Q460 41 513 64T605 128T665 226T686
349Q686 416 665 472T605 571T513 636T396 659Q333 659 280 636T188 572T128 473T107 349Q107 260 144 191T247 81T396 41ZM481 779Q461 779 450 790T439 820Q439 836 450 848T481 860Q503 860 513 850T523 820Q523 804 513 792T481 779ZM311 779Q292 779 281 790T269
820Q269 836 280 848T311 860Q333 860 343 850T353 820Q353 804 343 792T311 779Z" />
<glyph unicode="&#xd7;" horiz-adv-x="458" d="M387 97L44 439L78 469L419 128L387 97ZM72 95L40 128L381 469L413 436L72 95Z" />
<glyph unicode="&#xd8;" horiz-adv-x="788" d="M117 -23L83 5L672 727L708 701L117 -23ZM395 -10Q320 -10 258 16T149 91T77 204T52 349Q52 428 77 494T148 608T257 683T395 710Q470 710 533 684T642 609T713 494T739 350Q739 271 714 205T642 91T533 17T395 -10ZM395
41Q459 41 512 64T604 128T664 226T685 349Q685 416 664 472T604 571T512 636T395 659Q332 659 279 636T187 572T127 473T106 349Q106 260 143 191T246 81T395 41Z" />
<glyph unicode="&#xd9;" horiz-adv-x="743" d="M368 -6Q292 -6 232 29T137 127T102 269V700H154V278Q154 211 181 159T258 76T368 45Q433 45 483 75T561 158T590 278V700H640V269Q640 189 605 127T509 30T368 -6ZM432 761L261 844L286 889L448 790L432 761Z" />
<glyph unicode="&#xda;" horiz-adv-x="743" d="M368 -6Q292 -6 232 29T137 127T102 269V700H154V278Q154 211 181 159T258 76T368 45Q433 45 483 75T561 158T590 278V700H640V269Q640 189 605 127T509 30T368 -6ZM314 761L298 790L460 889L485 844L314 761Z" />
<glyph unicode="&#xdb;" horiz-adv-x="743" d="M368 -6Q292 -6 232 29T137 127T102 269V700H154V278Q154 211 181 159T258 76T368 45Q433 45 483 75T561 158T590 278V700H640V269Q640 189 605 127T509 30T368 -6ZM257 765L236 785L349 874H394L506 785L485 765L362
840H381L257 765Z" />
<glyph unicode="&#xdc;" horiz-adv-x="743" d="M368 -6Q292 -6 232 29T137 127T102 269V700H154V278Q154 211 181 159T258 76T368 45Q433 45 483 75T561 158T590 278V700H640V269Q640 189 605 127T509 30T368 -6ZM457 779Q437 779 426 790T415 820Q415 836 426
848T457 860Q479 860 489 850T499 820Q499 804 489 792T457 779ZM287 779Q268 779 257 790T245 820Q245 836 256 848T287 860Q309 860 319 850T329 820Q329 804 319 792T287 779Z" />
<glyph unicode="&#xdd;" horiz-adv-x="616" d="M288 0V342L296 300L17 700H79L323 349L307 351L540 700H599L329 297L340 345V0H288ZM250 761L234 790L396 889L421 844L250 761Z" />
<glyph unicode="&#xde;" horiz-adv-x="590" d="M106 0V700H158V554H348Q402 554 445 529T513 460T538 358Q538 304 513 259T445 187T348 160H158V0H106ZM158 211H346Q389 211 420 232T468 286T486 358Q486 400 470 432T422 484T346 503H158V211Z" />
<glyph unicode="&#xdf;" horiz-adv-x="627" d="M378 -10Q322 -9 283 12T216 77L248 104Q276 64 307 48T379 32Q447 32 487 69T528 188Q528 239 504 280T433 353T315 404V442Q349 448 375 459T419 488T446 526T456 573Q456 621 421 653T325 685Q252 685 211 637T169
496V0H121V496Q121 572 146 624T216 703T323 730Q380 730 421 710T483 655T505 576Q505 537 485 505T432 452T358 426L357 435Q435 411 483 374T554 290T577 192Q577 129 554 84T486 15T378 -10ZM35 412V458H146V412H35Z" />
<glyph unicode="&#xe0;" horiz-adv-x="536" d="M422 0V358Q422 416 382 450T271 484Q219 484 175 462T98 398L64 432Q105 482 158 507T275 532Q335 532 378 513T445 455T468 364V0H422ZM221 -10Q170 -10 130 10T67 65T43 149Q43 185 56 213T97 260T165 289T260
299H444L440 255H251Q212 255 183 248T133 228T102 195T91 149Q91 116 109 90T156 50T222 36Q268 36 307 52T378 96T429 163L446 132Q423 91 389 59T312 9T221 -10ZM573 609L418 710L451 752L592 637L573 609Z" />
<glyph unicode="&#xe1;" horiz-adv-x="536" d="M422 0V358Q422 416 382 450T271 484Q219 484 175 462T98 398L64 432Q105 482 158 507T275 532Q335 532 378 513T445 455T468 364V0H422ZM221 -10Q170 -10 130 10T67 65T43 149Q43 185 56 213T97 260T165 289T260
299H444L440 255H251Q212 255 183 248T133 228T102 195T91 149Q91 116 109 90T156 50T222 36Q268 36 307 52T378 96T429 163L446 132Q423 91 389 59T312 9T221 -10ZM213 609L194 637L335 752L368 710L213 609Z" />
<glyph unicode="&#xe2;" horiz-adv-x="536" d="M422 0V358Q422 416 382 450T271 484Q219 484 175 462T98 398L64 432Q105 482 158 507T275 532Q335 532 378 513T445 455T468 364V0H422ZM221 -10Q170 -10 130 10T67 65T43 149Q43 185 56 213T97 260T165 289T260
299H444L440 255H251Q212 255 183 248T133 228T102 195T91 149Q91 116 109 90T156 50T222 36Q268 36 307 52T378 96T429 163L446 132Q423 91 389 59T312 9T221 -10ZM157 616L135 636L245 736H293L403 636L381 616L259 701H279L157 616Z" />
<glyph unicode="&#xe3;" horiz-adv-x="536" d="M422 0V358Q422 416 382 450T271 484Q219 484 175 462T98 398L64 432Q105 482 158 507T275 532Q335 532 378 513T445 455T468 364V0H422ZM221 -10Q170 -10 130 10T67 65T43 149Q43 185 56 213T97 260T165 289T260
299H444L440 255H251Q212 255 183 248T133 228T102 195T91 149Q91 116 109 90T156 50T222 36Q268 36 307 52T378 96T429 163L446 132Q423 91 389 59T312 9T221 -10ZM330 627Q308 627 291 637T257 660Q235 677 225 682T207 687Q192 687 180 673T167 630L130 636Q130
673 153 699T209 726Q229 726 246 716T281 692Q291 683 305 674T331 665Q346 665 357 678T370 722L407 716Q407 691 397 671T369 639T330 627Z" />
<glyph unicode="&#xe4;" horiz-adv-x="536" d="M422 0V358Q422 416 382 450T271 484Q219 484 175 462T98 398L64 432Q105 482 158 507T275 532Q335 532 378 513T445 455T468 364V0H422ZM221 -10Q170 -10 130 10T67 65T43 149Q43 185 56 213T97 260T165 289T260
299H444L440 255H251Q212 255 183 248T133 228T102 195T91 149Q91 116 109 90T156 50T222 36Q268 36 307 52T378 96T429 163L446 132Q423 91 389 59T312 9T221 -10ZM353 656Q332 656 322 667T311 697Q311 716 321 727T353 739Q372 739 384 728T396 697Q396 679
385 668T353 656ZM185 656Q165 656 154 667T142 697Q142 716 153 727T185 739Q205 739 216 728T227 697Q227 679 217 668T185 656Z" />
<glyph unicode="&#xe5;" horiz-adv-x="536" d="M422 0V358Q422 416 382 450T271 484Q219 484 175 462T98 398L64 432Q105 482 158 507T275 532Q335 532 378 513T445 455T468 364V0H422ZM221 -10Q170 -10 130 10T67 65T43 149Q43 185 56 213T97 260T165 289T260
299H444L440 255H251Q212 255 183 248T133 228T102 195T91 149Q91 116 109 90T156 50T222 36Q268 36 307 52T378 96T429 163L446 132Q423 91 389 59T312 9T221 -10ZM268 597Q243 597 221 610T184 645T170 692Q170 718 183 739T219 774T268 787Q295 787 317 774T353
740T366 692Q366 667 353 646T317 611T268 597ZM268 631Q295 631 313 649T332 692Q332 720 314 736T268 753Q241 753 224 736T206 692Q206 668 224 650T268 631Z" />
<glyph unicode="&#xe6;" horiz-adv-x="933" d="M221 -10Q170 -10 130 10T67 65T43 149Q43 185 56 213T97 260T165 289T260 299H857L846 283V306Q845 358 821 398T756 460T669 483Q607 483 562 456T493 380T468 263Q468 198 496 147T574 67T687 38Q734 38 774 54T850
104L876 66Q852 43 822 26T756 0T683 -10Q605 -10 546 25T454 121T421 261Q421 318 439 367T490 453T568 510T666 531Q734 531 785 501T867 417T897 288L895 255H251Q212 255 183 248T133 228T102 195T91 149Q91 116 109 90T157 50T222 36Q269 36 310 52T384 99T437
168L460 132Q436 91 400 59T318 8T221 -10ZM421 270V364Q421 391 411 413T381 451T334 475T271 484Q219 484 175 462T96 397L62 430Q104 480 157 506T272 532Q318 532 354 521T415 490T454 441T468 373V271L421 270Z" />
<glyph unicode="&#xe7;" horiz-adv-x="529" d="M303 -10Q226 -10 167 25T74 122T40 263Q40 341 74 401T167 497T303 532Q368 532 421 507T507 438L477 402Q456 427 429 445T371 474T306 484Q243 484 195 456T118 378T89 263Q90 198 118 147T195 67T306 37Q340
37 370 46T427 74T476 118L506 82Q471 40 418 15T303 -10ZM220 -233L213 -204Q242 -200 270 -194T318 -174T337 -138Q337 -119 321 -110T283 -96T241 -92L228 -82L288 9H324L276 -62Q331 -67 356 -87T381 -139Q381 -166 366 -183T327 -210T275 -225T220 -233Z"
/>
<glyph unicode="&#xe8;" horiz-adv-x="560" d="M304 -10Q226 -10 167 25T74 121T40 261Q40 321 58 370T110 456T191 512T294 532Q344 532 386 515T460 465T508 388T523 288L522 255H75L67 299H483L471 282V307Q471 359 447 399T383 461T295 484Q232 484 186 457T116
380T91 263Q91 196 118 146T194 67T308 38Q355 38 395 54T472 104L498 67Q474 44 443 27T377 0T304 -10ZM342 609L187 710L220 752L361 637L342 609Z" />
<glyph unicode="&#xe9;" horiz-adv-x="560" d="M304 -10Q226 -10 167 25T74 121T40 261Q40 321 58 370T110 456T191 512T294 532Q344 532 386 515T460 465T508 388T523 288L522 255H75L67 299H483L471 282V307Q471 359 447 399T383 461T295 484Q232 484 186 457T116
380T91 263Q91 196 118 146T194 67T308 38Q355 38 395 54T472 104L498 67Q474 44 443 27T377 0T304 -10ZM238 609L219 637L360 752L393 710L238 609Z" />
<glyph unicode="&#xea;" horiz-adv-x="560" d="M304 -10Q226 -10 167 25T74 121T40 261Q40 321 58 370T110 456T191 512T294 532Q344 532 386 515T460 465T508 388T523 288L522 255H75L67 299H483L471 282V307Q471 359 447 399T383 461T295 484Q232 484 186 457T116
380T91 263Q91 196 118 146T194 67T308 38Q355 38 395 54T472 104L498 67Q474 44 443 27T377 0T304 -10ZM182 616L160 636L270 736H318L428 636L406 616L284 701H304L182 616Z" />
<glyph unicode="&#xeb;" horiz-adv-x="560" d="M304 -10Q226 -10 167 25T74 121T40 261Q40 321 58 370T110 456T191 512T294 532Q344 532 386 515T460 465T508 388T523 288L522 255H75L67 299H483L471 282V307Q471 359 447 399T383 461T295 484Q232 484 186 457T116
380T91 263Q91 196 118 146T194 67T308 38Q355 38 395 54T472 104L498 67Q474 44 443 27T377 0T304 -10ZM378 656Q357 656 347 667T336 697Q336 716 346 727T378 739Q397 739 409 728T421 697Q421 679 410 668T378 656ZM210 656Q190 656 179 667T167 697Q167 716
178 727T210 739Q230 739 241 728T252 697Q252 679 242 668T210 656Z" />
<glyph unicode="&#xec;" horiz-adv-x="191" d="M70 0V525H121V0H70ZM143 609L-12 710L21 752L162 637L143 609Z" />
<glyph unicode="&#xed;" horiz-adv-x="191" d="M70 0V525H121V0H70ZM39 609L20 637L161 752L194 710L39 609Z" />
<glyph unicode="&#xee;" horiz-adv-x="191" d="M70 0V525H121V0H70ZM-17 616L-39 636L71 736H119L229 636L207 616L85 701H105L-17 616Z" />
<glyph unicode="&#xef;" horiz-adv-x="191" d="M70 0V525H121V0H70ZM179 656Q158 656 148 667T137 697Q137 716 147 727T179 739Q198 739 210 728T222 697Q222 679 211 668T179 656ZM11 656Q-9 656 -20 667T-32 697Q-32 716 -21 727T11 739Q31 739 42 728T53 697Q53
679 43 668T11 656Z" />
<glyph unicode="&#xf0;" horiz-adv-x="576" d="M288 -9Q216 -9 160 26T72 123T40 263Q40 320 58 368T111 452T189 507T286 527Q339 527 384 504T459 443T496 362L472 374Q471 434 450 487T392 582T303 654T189 698L211 739Q271 726 321 699T411 630T479 535T521
413T536 268Q536 188 504 126T416 27T288 -9ZM288 39Q346 39 390 68T460 147T486 263Q486 326 461 374T391 451T288 479Q231 479 186 452T115 375T89 263Q89 198 115 148T186 68T288 39ZM161 558L154 595L335 644L363 652L487 684L498 647L395 621L371 613L161
558Z" />
<glyph unicode="&#xf1;" horiz-adv-x="560" d="M70 0V525H120L121 409L109 402Q120 437 149 466T221 514T308 532Q367 532 408 510T470 442T492 325V0H441V323Q441 380 425 416T376 468T296 484Q258 484 226 472T171 439T134 397T121 356V0H96Q91 0 84 0T70 0ZM356
627Q334 627 317 637T283 660Q261 677 251 682T233 687Q218 687 206 673T193 630L156 636Q156 673 179 699T235 726Q255 726 272 716T307 692Q317 683 331 674T357 665Q372 665 383 678T396 722L433 716Q433 691 423 671T395 639T356 627Z" />
<glyph unicode="&#xf2;" horiz-adv-x="615" d="M308 -10Q230 -10 170 25T75 122T40 263Q40 341 74 401T169 497T308 532Q387 532 447 497T541 402T575 263Q575 184 541 123T447 26T308 -10ZM308 38Q371 38 420 67T496 147T524 263Q524 328 497 377T420 455T308
484Q245 484 196 456T119 377T91 263Q91 198 119 147T196 67T308 38ZM356 609L201 710L234 752L375 637L356 609Z" />
<glyph unicode="&#xf3;" horiz-adv-x="615" d="M308 -10Q230 -10 170 25T75 122T40 263Q40 341 74 401T169 497T308 532Q387 532 447 497T541 402T575 263Q575 184 541 123T447 26T308 -10ZM308 38Q371 38 420 67T496 147T524 263Q524 328 497 377T420 455T308
484Q245 484 196 456T119 377T91 263Q91 198 119 147T196 67T308 38ZM254 609L235 637L376 752L409 710L254 609Z" />
<glyph unicode="&#xf4;" horiz-adv-x="615" d="M308 -10Q230 -10 170 25T75 122T40 263Q40 341 74 401T169 497T308 532Q387 532 447 497T541 402T575 263Q575 184 541 123T447 26T308 -10ZM308 38Q371 38 420 67T496 147T524 263Q524 328 497 377T420 455T308
484Q245 484 196 456T119 377T91 263Q91 198 119 147T196 67T308 38ZM196 616L174 636L284 736H332L442 636L420 616L298 701H318L196 616Z" />
<glyph unicode="&#xf5;" horiz-adv-x="615" d="M308 -10Q230 -10 170 25T75 122T40 263Q40 341 74 401T169 497T308 532Q387 532 447 497T541 402T575 263Q575 184 541 123T447 26T308 -10ZM308 38Q371 38 420 67T496 147T524 263Q524 328 497 377T420 455T308
484Q245 484 196 456T119 377T91 263Q91 198 119 147T196 67T308 38ZM370 627Q348 627 331 637T297 660Q275 677 265 682T247 687Q232 687 220 673T207 630L170 636Q170 673 193 699T249 726Q269 726 286 716T321 692Q331 683 345 674T371 665Q386 665 397 678T410
722L447 716Q447 691 437 671T409 639T370 627Z" />
<glyph unicode="&#xf6;" horiz-adv-x="615" d="M308 -10Q230 -10 170 25T75 122T40 263Q40 341 74 401T169 497T308 532Q387 532 447 497T541 402T575 263Q575 184 541 123T447 26T308 -10ZM308 38Q371 38 420 67T496 147T524 263Q524 328 497 377T420 455T308
484Q245 484 196 456T119 377T91 263Q91 198 119 147T196 67T308 38ZM392 656Q371 656 361 667T350 697Q350 716 360 727T392 739Q411 739 423 728T435 697Q435 679 424 668T392 656ZM224 656Q204 656 193 667T181 697Q181 716 192 727T224 739Q244 739 255 728T266
697Q266 679 256 668T224 656Z" />
<glyph unicode="&#xf7;" horiz-adv-x="591" d="M54 261V307H536V261H54ZM293 83Q282 83 273 88T257 103T251 124Q251 135 257 144T272 159T293 165Q305 165 314 159T328 144T334 124Q334 113 329 104T314 89T293 83ZM293 402Q282 402 273 407T257 422T251 443Q251
453 257 463T272 479T293 485Q305 485 314 479T328 463T334 443Q334 432 329 423T314 408T293 402Z" />
<glyph unicode="&#xf8;" horiz-adv-x="615" d="M90 -24L56 1L514 540L549 513L90 -24ZM308 -10Q230 -10 170 25T75 122T40 263Q40 341 74 401T169 497T308 532Q387 532 447 497T541 402T575 263Q575 184 541 123T447 26T308 -10ZM308 38Q371 38 420 67T496 147T524
263Q524 328 497 377T420 455T308 484Q245 484 196 456T119 377T91 263Q91 198 119 147T196 67T308 38Z" />
<glyph unicode="&#xf9;" horiz-adv-x="562" d="M261 -10Q202 -10 160 13T96 82T73 198V525H124V209Q124 121 164 79T277 36Q311 36 340 49T391 83T426 126T439 170V525H490V0H441L439 118L451 123Q439 87 411 57T345 8T261 -10ZM329 609L174 710L207 752L348 637L329
609Z" />
<glyph unicode="&#xfa;" horiz-adv-x="562" d="M261 -10Q202 -10 160 13T96 82T73 198V525H124V209Q124 121 164 79T277 36Q311 36 340 49T391 83T426 126T439 170V525H490V0H441L439 118L451 123Q439 87 411 57T345 8T261 -10ZM226 609L207 637L348 752L381 710L226
609Z" />
<glyph unicode="&#xfb;" horiz-adv-x="562" d="M261 -10Q202 -10 160 13T96 82T73 198V525H124V209Q124 121 164 79T277 36Q311 36 340 49T391 83T426 126T439 170V525H490V0H441L439 118L451 123Q439 87 411 57T345 8T261 -10ZM169 616L147 636L257 736H305L415
636L393 616L271 701H291L169 616Z" />
<glyph unicode="&#xfc;" horiz-adv-x="562" d="M261 -10Q202 -10 160 13T96 82T73 198V525H124V209Q124 121 164 79T277 36Q311 36 340 49T391 83T426 126T439 170V525H490V0H441L439 118L451 123Q439 87 411 57T345 8T261 -10ZM365 656Q344 656 334 667T323 697Q323
716 333 727T365 739Q384 739 396 728T408 697Q408 679 397 668T365 656ZM197 656Q177 656 166 667T154 697Q154 716 165 727T197 739Q217 739 228 728T239 697Q239 679 229 668T197 656Z" />
<glyph unicode="&#xfd;" horiz-adv-x="530" d="M158 -230L257 11L260 -28L12 525H70L265 86Q272 72 276 61T283 40L268 35Q274 49 279 63T290 92L459 525H518L301 -8L214 -230H158ZM210 609L191 637L332 752L365 710L210 609Z" />
<glyph unicode="&#xfe;" horiz-adv-x="618" d="M70 -227V740H122V370L111 374Q124 419 155 454T232 510T330 531Q399 531 455 496T545 400T578 260Q578 182 546 121T458 25T330 -10Q277 -10 231 10T152 67T108 147L122 152V-227H70ZM321 38Q382 38 429 67T503
146T530 260Q530 325 503 375T429 455T321 484Q262 484 217 455T145 376T118 261Q118 196 145 146T217 67T321 38Z" />
<glyph unicode="&#xff;" horiz-adv-x="530" d="M158 -230L257 11L260 -28L12 525H70L265 86Q272 72 276 61T283 40L268 35Q274 49 279 63T290 92L459 525H518L301 -8L214 -230H158ZM349 656Q328 656 318 667T307 697Q307 716 317 727T349 739Q368 739 380 728T392
697Q392 679 381 668T349 656ZM181 656Q161 656 150 667T138 697Q138 716 149 727T181 739Q201 739 212 728T223 697Q223 679 213 668T181 656Z" />
<glyph unicode="&#x2013;" horiz-adv-x="514" d="M53 267V316H461V267H53Z" />
<glyph unicode="&#x2014;" horiz-adv-x="868" d="M53 267V317H815V267H53Z" />
<glyph unicode="&#x2018;" horiz-adv-x="238" d="M131 540Q112 540 97 549T74 577T66 619Q66 638 71 655T87 688T116 720T158 751L177 727Q152 707 135 686T117 650Q117 635 125 628T146 614Q159 606 165 597T171 576Q171 560 161 550T131 540Z" />
<glyph unicode="&#x2019;" horiz-adv-x="237" d="M79 538L61 562Q86 582 103 603T121 638Q121 653 112 660T92 674Q78 682 72 691T65 712Q65 729 76 739T106 749Q126 749 140 740T163 713T171 670Q171 652 166 635T149 601T121 569T79 538Z" />
<glyph unicode="&#x201a;" horiz-adv-x="234" d="M86 -142L67 -119Q92 -98 108 -76T124 -38Q124 -24 118 -17T96 -1Q85 9 79 18T73 40Q73 55 84 65T114 76Q133 76 146 67T167 40T175 -4Q175 -25 170 -44T153 -79T125 -111T86 -142Z" />
<glyph unicode="&#x201c;" horiz-adv-x="380" d="M131 791Q112 791 97 800T74 828T66 870Q66 889 71 906T87 939T116 971T158 1002L177 978Q152 958 135 937T117 901Q117 886 125 879T146 865Q159 857 165 848T171 827Q171 811 161 801T131 791ZM273 535Q254 535
239 544T216 572T208 614Q208 633 213 650T229 683T258 715T300 746L319 722Q294 702 277 681T259 645Q259 630 267 623T288 609Q301 601 307 592T313 571Q313 555 303 545T273 535Z" />
<glyph unicode="&#x201d;" horiz-adv-x="374" d="M79 538L61 562Q86 582 103 603T121 638Q121 653 112 660T92 674Q78 682 72 691T65 712Q65 729 76 739T106 749Q126 749 140 740T163 713T171 670Q171 652 166 635T149 601T121 569T79 538ZM216 538L198 562Q223
582 240 603T258 638Q258 653 249 660T229 674Q215 682 209 691T202 712Q202 729 213 739T243 749Q263 749 277 740T300 713T308 670Q308 652 303 635T286 601T258 569T216 538Z" />
<glyph unicode="&#x201e;" horiz-adv-x="383" d="M86 -142L67 -119Q92 -98 108 -76T124 -38Q124 -24 118 -17T96 -1Q85 9 79 18T73 40Q73 55 84 65T114 76Q133 76 146 67T167 40T175 -4Q175 -25 170 -44T153 -79T125 -111T86 -142ZM235 -142L216 -119Q241 -98
257 -76T273 -38Q273 -24 267 -17T245 -1Q234 9 228 18T222 40Q222 55 233 65T263 76Q282 76 295 67T316 40T324 -4Q324 -25 319 -44T302 -79T274 -111T235 -142Z" />
<glyph unicode="&#x2022;" horiz-adv-x="347" d="M172 254Q148 254 127 266T92 299T79 346Q79 372 91 393T125 428T172 441Q199 441 221 428T256 394T269 346Q269 321 256 300T221 267T172 254Z" />
<glyph unicode="&#x2039;" horiz-adv-x="270" d="M195 64L30 265V269L195 462L229 438L77 259V276L230 89L195 64Z" />
<glyph unicode="&#x203a;" horiz-adv-x="275" d="M78 59L44 83L196 262V245L43 432L78 457L243 256V252L78 59Z" />
</font>
</defs>
</svg>
